找回密码
 立即注册

QQ登录

只需一步,快速开始

查看: 28|回复: 0

[其他] 普通人 Ordinary.People.1980.2160p.WEB-DL.AAC2.0.DV.MP4.x265-DVSUX 21.79GB

[复制链接]

0

精华

0

好友

2

听众

新手上路

Rank: 2

蓝光币
5
发表于 2022-5-10 08:01:03 | 显示全部楼层 |阅读模式


◎译  名 普通人 / 凡夫俗子 / 慈父严母
◎片  名 Ordinary People
◎年  代 1980
◎产  地 美国
◎类  别 剧情
◎语  言 英语
◎上映日期 1980-09-19
◎IMDb链接 https://www.imdb.com/title/tt0081283/
◎豆瓣评分 8.0/10 (4985人评价)
◎豆瓣链接 https://movie.douban.com/subject/1294925/
◎片  长 124 分钟
◎导  演 罗伯特·雷德福 Robert Redford (id:1053617)
◎编  剧 朱迪斯·格斯特 Judith Guest (id:1001592)
       阿尔文·萨金特 Alvin Sargent (id:1000667)
       南希·多德 Nancy Dowd (id:1282660)
◎演  员 唐纳德·萨瑟兰 Donald Sutherland (id:1010556)
       玛丽·泰勒·摩尔 Mary Tyler Moore (id:1013963)
       贾德·赫希 Judd Hirsch (id:1055274)
       蒂莫西·赫顿 Timothy Hutton (id:1025207)
       M·埃梅特·沃尔什 M. Emmet Walsh (id:1054687)
       伊丽莎白·麦戈文 Elizabeth McGovern (id:1010588)
       黛娜·马诺夫 Dinah Manoff (id:1007056)
       弗瑞德里克·林恩 Fredric Lehne (id:1004785)
       詹姆斯·希金 James Sikking (id:1142215)
       Basil Hoffman Basil Hoffman (id:1092279)
       奎因·K·雷德克 Quinn K. Redeker (id:1048354)
       Mariclare Costello Mariclare Costello (id:1070216)
       Elizabeth Hubbard Elizabeth Hubbard (id:1091725)
       亚当·鲍德温 Adam Baldwin (id:1031806)
       理查德·怀廷 Richard Whiting (id:1162720)
       Cynthia Baker Cynthia Baker (id:1057033)
       Rudy Hornish Rudy Hornish (id:1098630)
       简·奥德曼 Jane Alderman (id:1276949)
       Marilyn Rockafellow Marilyn Rockafellow (id:1141136)
       唐·比利特 Don Billett (id:1061199)
       Randy De Troit Randy De Troit (id:1205442)
       迈克·T·维斯 Michael T. Weiss (id:1004628)
       罗纳德·施瓦里 Ronald L. Schwary (id:1297049)
       Penny Perry Penny Perry (id:1294339)
       Gary Liddiard Gary Liddiard (id:1290022)
       Steve Perry Steve Perry (id:1294334)
       迈克尔·布里顿 Michael Britton (id:1279335)
◎简  介

  和大部分家庭一样,杰瑞特一家人过着稳定而又平静的生活,卡尔文(唐纳德·萨瑟兰 Donald Sutherland)不仅是一个工作上矜矜业业的正直律师,同时也将父亲和丈夫的角色扮演得十分出色,和妻子贝丝(玛丽·泰勒·摩尔 Mary Tyler Moore 饰)结婚二十余载,两人的感情分外稳定。                                    
                                身为杰瑞特家的大儿子,伯克(Scott Doebler 饰)享受着更多的关心与爱,身为小儿子的康纳德(蒂莫西·赫顿 Timothy Hutton 饰)对此却并不在意。一次意外中,伯克溺水身亡,悲痛欲绝的贝丝迁怒于当时和伯克在一起的康纳德,这让后者十分痛苦与自责,好在有卡尔文的陪伴和关心,他内心的创伤才渐渐治愈。然而,当他再次鼓起勇气向母亲索取温暖的时候,贝丝的举动却让他的心再一次坠入了冰窖。
◎获奖情况 (共6项)
  第53届奥斯卡金像奖 (1981)
  最佳影片
   └──罗纳德·施瓦里 (id:1297049)
  最佳导演
   └──罗伯特·雷德福 (id:1053617)
  最佳女主角(提名)
   └──玛丽·泰勒·摩尔 (id:1013963)
  最佳男配角
   └──蒂莫西·赫顿 (id:1025207)
  最佳男配角(提名)
   └──贾德·赫希 (id:1055274)
  最佳改编剧本
   └──阿尔文·萨金特 (id:1000667)
  1. Video
  2. ID                                       : 1
  3. Format                                   : HEVC
  4. Format/Info                              : High Efficiency Video Coding
  5. Format profile                           : Main [email protected]@High
  6. HDR format                               : Dolby Vision, Version 1.0, dvhe.05.06, BL+RPU
  7. Codec ID                                 : dvhe
  8. Codec ID/Info                            : High Efficiency Video Coding with Dolby Vision
  9. Duration                                 : 2 h 4 min
  10. Bit rate                                 : 25.0 Mb/s
  11. Width                                    : 3 840 pixels
  12. Original width                           : 3 838 pixels
  13. Height                                   : 2 160 pixels
  14. Display aspect ratio                     : 16:9
  15. Original display aspect ratio            : 16:9
  16. Frame rate mode                          : Constant
  17. Frame rate                               : 23.976 (24000/1001/189150) FPS
  18. Color space                              : YUV
  19. Chroma subsampling                       : 4:2:0
  20. Bit depth                                : 10 bits
  21. Bits/(Pixel*Frame)                       : 0.126
  22. Stream size                              : 21.7 GiB (100%)
  23. Default                                  : Yes
  24. Alternate group                          : 1
  25. Encoded date                             : UTC 2022-05-09 09:03:28
  26. Tagged date                              : UTC 2022-05-09 09:08:49
  27. Codec configuration box                  : hvcC+dvcC
  28. Audio
  29. ID                                       : 2
  30. Format                                   : AAC LC
  31. Format/Info                              : Advanced Audio Codec Low Complexity
  32. Codec ID                                 : mp4a-40-2
  33. Duration                                 : 2 h 4 min
  34. Bit rate mode                            : Variable
  35. Bit rate                                 : 109 kb/s
  36. Maximum bit rate                         : 143 kb/s / 109 kb/s
  37. Channel(s)                               : 2 channels
  38. Channel layout                           : L R
  39. Sampling rate                            : 48.0 kHz
  40. Frame rate                               : 46.875 FPS (1024 SPF)
  41. Compression mode                         : Lossy
  42. Stream size                              : 96.5 MiB (0%)
  43. Title                                    : English
  44. Language                                 : English
  45. Default                                  : Yes
  46. Alternate group                          : 1
  47. Tagged date                              : UTC 2022-05-09 09:08:49
  48. Text #1
  49. ID                                       : 3
  50. Format                                   : Timed Text
  51. Codec ID                                 : tx3g
  52. Duration                                 : 2 h 1 min
  53. Bit rate mode                            : Variable
  54. Bit rate                                 : 72 b/s
  55. Stream size                              : 64.0 KiB (0%)
  56. Title                                    : English
  57. Language                                 : English
  58. Forced                                   : No
  59. Encoded date                             : UTC 2022-05-09 09:08:48
  60. Tagged date                              : UTC 2022-05-09 09:08:49
  61. Text #2
  62. ID                                       : 4
  63. Format                                   : Timed Text
  64. Codec ID                                 : tx3g
  65. Duration                                 : 2 h 1 min
  66. Bit rate mode                            : Variable
  67. Bit rate                                 : 50 b/s
  68. Stream size                              : 44.4 KiB (0%)
  69. Title                                    : Dutch
  70. Language                                 : Dutch
  71. Forced                                   : No
  72. Encoded date                             : UTC 2022-05-09 09:08:49
  73. Tagged date                              : UTC 2022-05-09 09:08:49
  74. Text #3
  75. ID                                       : 5
  76. Format                                   : Timed Text
  77. Codec ID                                 : tx3g
  78. Duration                                 : 2 h 1 min
  79. Bit rate mode                            : Variable
  80. Bit rate                                 : 49 b/s
  81. Stream size                              : 43.7 KiB (0%)
  82. Title                                    : French
  83. Language                                 : French
  84. Forced                                   : No
  85. Encoded date                             : UTC 2022-05-09 09:08:49
  86. Tagged date                              : UTC 2022-05-09 09:08:49
  87. Text #4
  88. ID                                       : 6
  89. Format                                   : Timed Text
  90. Codec ID                                 : tx3g
  91. Duration                                 : 2 h 4 min
  92. Bit rate mode                            : Variable
  93. Bit rate                                 : 68 b/s
  94. Stream size                              : 62.1 KiB (0%)
  95. Title                                    : German
  96. Language                                 : German
  97. Forced                                   : No
  98. Encoded date                             : UTC 2022-05-09 09:08:49
  99. Tagged date                              : UTC 2022-05-09 09:08:49
  100. Text #5
  101. ID                                       : 7
  102. Format                                   : Timed Text
  103. Codec ID                                 : tx3g
  104. Duration                                 : 2 h 1 min
  105. Bit rate mode                            : Variable
  106. Bit rate                                 : 66 b/s
  107. Stream size                              : 58.8 KiB (0%)
  108. Title                                    : Italian
  109. Language                                 : Italian
  110. Forced                                   : No
  111. Encoded date                             : UTC 2022-05-09 09:08:49
  112. Tagged date                              : UTC 2022-05-09 09:08:49
  113. Text #6
  114. ID                                       : 8
  115. Format                                   : Timed Text
  116. Codec ID                                 : tx3g
  117. Duration                                 : 2 h 1 min
  118. Bit rate mode                            : Variable
  119. Bit rate                                 : 66 b/s
  120. Stream size                              : 58.2 KiB (0%)
  121. Title                                    : Portuguese
  122. Language                                 : Portuguese
  123. Forced                                   : No
  124. Encoded date                             : UTC 2022-05-09 09:08:49
  125. Tagged date                              : UTC 2022-05-09 09:08:49
  126. Text #7
  127. ID                                       : 9
  128. Format                                   : Timed Text
  129. Codec ID                                 : tx3g
  130. Duration                                 : 2 h 1 min
  131. Bit rate mode                            : Variable
  132. Bit rate                                 : 76 b/s
  133. Stream size                              : 67.5 KiB (0%)
  134. Title                                    : Spanish
  135. Language                                 : Spanish
  136. Forced                                   : No
  137. Encoded date                             : UTC 2022-05-09 09:08:49
  138. Tagged date                              : UTC 2022-05-09 09:08:49
  139. Text #8
  140. ID                                       : 10
  141. Format                                   : Timed Text
  142. Codec ID                                 : tx3g
  143. Duration                                 : 2 h 1 min
  144. Bit rate mode                            : Variable
  145. Bit rate                                 : 64 b/s
  146. Stream size                              : 56.3 KiB (0%)
  147. Title                                    : Spanish-EU
  148. Language                                 : Spanish
  149. Forced                                   : No
  150. Encoded date                             : UTC 2022-05-09 09:08:49
  151. Tagged date                              : UTC 2022-05-09 09:08:49
复制代码




                                       
                                       

                                       
                                       
                                       




Ordinary.People.1980.2160p.WEB-DL.AAC2.0.DV.MP4.x265-DVSUX.torrent (27.88 KB, 下载次数: 0)
回复

使用道具 举报

您需要登录后才可以回帖 登录 | 立即注册

本版积分规则

QQ|Archiver|手机版|小黑屋|蓝光电影网

GMT+8, 2022-5-19 23:11 , Processed in 0.053259 second(s), 28 queries .

Powered by Discuz! X3.4

Copyright © 2001-2020, Tencent Cloud.

快速回复 返回顶部 返回列表