找回密码
 立即注册

QQ登录

只需一步,快速开始

查看: 27|回复: 0

[其他] 美国升华 American.Insurrection.2021.2160p.WEB-DL.x265.8bit.SDR.DTS-HD.MA.5.1-NOGRP 13.52GB

[复制链接]

0

精华

0

好友

2

听众

新手上路

Rank: 2

蓝光币
5
发表于 2022-5-10 08:00:55 | 显示全部楼层 |阅读模式


◎译  名 美国升华 / The Volunteers
◎片  名 American Insurrection
◎年  代 2021
◎产  地 美国
◎类  别 剧情 / 动作 / 惊悚
◎语  言 英语
◎上映日期 2021-10-08(美國)
◎IMDb链接 https://www.imdb.com/title/tt11737466/
◎豆瓣链接 https://movie.douban.com/subject/35566292/
◎导  演 威廉·苏利文 William Sullivan (id:1391686)
◎编  剧 威廉·苏利文 William Sullivan (id:1391686)
◎演  员 纳丁·马卢夫 Nadine Malouf (id:1432435)
       尼克·韦斯特雷特 Nick Westrate (id:1400259)
       布兰登·佩利亚 Brandon Perea (id:1366445)
       莎拉·沃尔顿 Sarah Wharton (id:1391683)
       迈克尔·雷蒙德-詹姆斯 Michael Raymond-James (id:1201404)
◎简  介

  背景设定在一个反乌托邦的美国,所有非异性恋、白人、基督徒和顺性别的人都被政府用条形码跟踪。
  1. Video
  2. ID                                       : 1
  3. Format                                   : HEVC
  4. Format/Info                              : High Efficiency Video Coding
  5. Format profile                           : [email protected]@Main
  6. Codec ID                                 : V_MPEGH/ISO/HEVC
  7. Duration                                 : 1 h 55 min
  8. Bit rate                                 : 14.9 Mb/s
  9. Width                                    : 3 840 pixels
  10. Height                                   : 2 160 pixels
  11. Display aspect ratio                     : 16:9
  12. Frame rate mode                          : Constant
  13. Frame rate                               : 23.976 (24000/1001/189150) FPS
  14. Color space                              : YUV
  15. Chroma subsampling                       : 4:2:0
  16. Bit depth                                : 8 bits
  17. Bits/(Pixel*Frame)                       : 0.075
  18. Stream size                              : 12.0 GiB (89%)
  19. Writing library                          : x265 3.5hy:[Linux][GCC 7.5.0][64 bit] 8bit
  20. Encoding settings                        : cpuid=1111039 / frame-threads=2 / wpp / no-pmode / no-pme / no-psnr / no-ssim / log-level=2 / input-csp=1 / input-res=3840x2160 / interlace=0 / total-frames=0 / level-idc=0 / high-tier=1 / uhd-bd=0 / ref=4 / no-allow-non-conformance / repeat-headers / annexb / aud / hrd / info / hash=0 / no-temporal-layers / no-open-gop / min-keyint=48 / keyint=48 / gop-lookahead=0 / bframes=4 / b-adapt=2 / b-pyramid / bframe-bias=0 / rc-lookahead=48 / lookahead-slices=4 / scenecut=0 / hist-scenecut=0 / radl=0 / no-splice / no-intra-refresh / ctu=64 / min-cu-size=8 / rect / no-amp / max-tu-size=32 / tu-inter-depth=1 / tu-intra-depth=1 / limit-tu=0 / rdoq-level=2 / dynamic-rd=0.00 / no-ssim-rd / signhide / no-tskip / nr-intra=100 / nr-inter=200 / no-constrained-intra / strong-intra-smoothing / max-merge=3 / limit-refs=3 / limit-modes / me=3 / subme=3 / merange=57 / temporal-mvp / no-frame-dup / no-hme / weightp / no-weightb / no-analyze-src-pics / deblock=0:0 / no-sao / no-sao-non-deblock / rd=4 / selective-sao=0 / no-early-skip / no-rskip / no-fast-intra / no-tskip-fast / no-cu-lossless / no-b-intra / no-splitrd-skip / rdpenalty=0 / psy-rd=0.00 / psy-rdoq=10.00 / no-rd-refine / no-lossless / cbqpoffs=0 / crqpoffs=0 / rc=abr / bitrate=15000 / qcomp=0.60 / qpstep=1 / stats-write=0 / stats-read=2 / cplxblur=20.0 / qblur=0.5 / vbv-maxrate=18000 / vbv-bufsize=12000 / vbv-init=0.6 / min-vbv-fullness=50.0 / max-vbv-fullness=80.0 / vbv-end=0.6 / vbv-end-fr-adj=0.0 / ipratio=1.10 / pbratio=1.00 / aq-mode=0 / aq-strength=0.00 / no-cutree / zone-count=0 / no-strict-cbr / qg-size=32 / rc-grain / qpmax=69 / qpmin=0 / const-vbv / sar=0 / overscan=0 / videoformat=5 / range=0 / colorprim=1 / transfer=1 / colormatrix=1 / chromaloc=0 / display-window=0 / cll=0,0 / min-luma=0 / max-luma=255 / log2-max-poc-lsb=8 / vui-timing-info / vui-hrd-info / no-concatenation / slices=1 / no-opt-qp-pps / no-opt-ref-list-length-pps / no-multi-pass-opt-rps / scenecut-bias=0.05 / hist-threshold=0.03 / no-opt-cu-delta-qp / no-aq-motion / no-hdr10 / no-hdr10-opt / no-dhdr10-opt / no-idr-recovery-sei / analysis-reuse-level=0 / analysis-save-reuse-level=0 / analysis-load-reuse-level=0 / scale-factor=0 / refine-intra=0 / refine-inter=0 / refine-mv=1 / refine-ctu-distortion=0 / no-limit-sao / ctu-info=0 / no-lowpass-dct / refine-analysis-type=0 / copy-pic=1 / max-ausize-factor=1.0 / no-dynamic-refine / no-single-sei / no-hevc-aq / no-svt / no-field / qp-adaptation-range=1.00 / scenecut-aware-qp=0conformance-window-offsets / right=0 / bottom=0 / decoder-max-rate=0 / no-vbv-live-multi-pass
  21. Language                                 : English
  22. Default                                  : Yes
  23. Forced                                   : No
  24. Color range                              : Limited
  25. Color primaries                          : BT.709
  26. Transfer characteristics                 : BT.709
  27. Matrix coefficients                      : BT.709
  28. Audio #1
  29. ID                                       : 2
  30. Format                                   : DTS XLL
  31. Format/Info                              : Digital Theater Systems
  32. Commercial name                          : DTS-HD Master Audio
  33. Codec ID                                 : A_DTS
  34. Duration                                 : 1 h 55 min
  35. Bit rate mode                            : Variable
  36. Bit rate                                 : 1 477 kb/s
  37. Channel(s)                               : 6 channels
  38. Channel layout                           : C L R Ls Rs LFE
  39. Sampling rate                            : 48.0 kHz
  40. Frame rate                               : 93.750 FPS (512 SPF)
  41. Bit depth                                : 16 bits
  42. Compression mode                         : Lossless
  43. Delay relative to video                  : 11 s 500 ms
  44. Stream size                              : 1.19 GiB (9%)
  45. Title                                    : DTS-HD MA 5.1
  46. Language                                 : English
  47. Default                                  : Yes
  48. Forced                                   : No
  49. Audio #2
  50. ID                                       : 3
  51. Format                                   : AC-3
  52. Format/Info                              : Audio Coding 3
  53. Commercial name                          : Dolby Digital
  54. Codec ID                                 : A_AC3
  55. Duration                                 : 1 h 55 min
  56. Bit rate mode                            : Constant
  57. Bit rate                                 : 384 kb/s
  58. Channel(s)                               : 6 channels
  59. Channel layout                           : L R C LFE Ls Rs
  60. Sampling rate                            : 48.0 kHz
  61. Frame rate                               : 31.250 FPS (1536 SPF)
  62. Compression mode                         : Lossy
  63. Stream size                              : 316 MiB (2%)
  64. Title                                    : English
  65. Language                                 : English
  66. Service kind                             : Complete Main
  67. Default                                  : No
  68. Forced                                   : No
  69. Text #1
  70. ID                                       : 4
  71. Format                                   : UTF-8
  72. Codec ID                                 : S_TEXT/UTF8
  73. Codec ID/Info                            : UTF-8 Plain Text
  74. Duration                                 : 1 h 54 min
  75. Bit rate                                 : 70 b/s
  76. Count of elements                        : 1988
  77. Stream size                              : 58.8 KiB (0%)
  78. Title                                    : English (SDH)
  79. Language                                 : English
  80. Default                                  : Yes
  81. Forced                                   : No
  82. Text #2
  83. ID                                       : 5
  84. Format                                   : PGS
  85. Muxing mode                              : zlib
  86. Codec ID                                 : S_HDMV/PGS
  87. Codec ID/Info                            : Picture based subtitle format used on BDs/HD-DVDs
  88. Duration                                 : 1 h 51 min
  89. Bit rate                                 : 26.4 kb/s
  90. Count of elements                        : 2167
  91. Stream size                              : 21.1 MiB (0%)
  92. Language                                 : German
  93. Default                                  : No
  94. Forced                                   : No
  95. Menu
  96. 00:00:00.000                             : en:Chapter 01
  97. 00:05:08.850                             : en:Chapter 02
  98. 00:20:29.395                             : en:Chapter 03
  99. 00:33:42.812                             : en:Chapter 04
  100. 00:49:26.505                             : en:Chapter 05
  101. 00:59:25.854                             : en:Chapter 06
  102. 01:07:01.976                             : en:Chapter 07
  103. 01:17:30.563                             : en:Chapter 08
  104. 01:27:28.410                             : en:Chapter 09
  105. 01:35:35.271                             : en:Chapter 10
  106. 01:44:24.175                             : en:Chapter 11
  107. 01:53:12.786                             : en:Chapter 12
复制代码






                                       
                                       

                                       
                                       
                                       




American.Insurrection.2021.2160p.WEB-DL.x265.8bit.SDR.DTS-HD.MA.5.1-NOGRP.torrent (17.58 KB, 下载次数: 1)
回复

使用道具 举报

您需要登录后才可以回帖 登录 | 立即注册

本版积分规则

QQ|Archiver|手机版|小黑屋|蓝光电影网

GMT+8, 2022-5-19 23:13 , Processed in 0.066967 second(s), 28 queries .

Powered by Discuz! X3.4

Copyright © 2001-2020, Tencent Cloud.

快速回复 返回顶部 返回列表