找回密码
 立即注册

QQ登录

只需一步,快速开始

查看: 31|回复: 0

[其他] 变线人生 Changing.Lanes.2002.2160p.WEB-DL.DTS-HD.MA.5.1.DV.MKV.x265-DVSUX 20.26GB

[复制链接]

0

精华

0

好友

2

听众

新手上路

Rank: 2

蓝光币
5
发表于 2022-5-10 08:00:26 | 显示全部楼层 |阅读模式


◎译  名 变线人生 / 连锁导火线 / 生死交关 / 逆行风暴 / 命运交错
◎片  名 Changing Lanes
◎年  代 2002
◎产  地 美国
◎类  别 剧情 / 惊悚
◎语  言 英语
◎上映日期 2002-04-12
◎IMDb链接 https://www.imdb.com/title/tt0264472/
◎豆瓣评分 6.8/10 (3857人评价)
◎豆瓣链接 https://movie.douban.com/subject/1297881/
◎片  长 98 分钟
◎导  演 罗杰·米歇尔 Roger Michell (id:1018187)
◎编  剧 迈克尔·托尔金 Michael Tolkin (id:1028080)
◎演  员 本·阿弗莱克 Ben Affleck (id:1054417)
       塞缪尔·杰克逊 Samuel L. Jackson (id:1054408)
       托妮·科莱特 Toni Collette (id:1041108)
       西德尼·波拉克 Sydney Pollack (id:1010608)
       蒂娜·斯隆 Tina Sloan (id:1153233)
       理查德·詹金斯 Richard Jenkins (id:1048145)
       科尔·霍金斯 Cole Hawkins (id:1096233)
       伊林·盖特兹 Ileen Getz (id:1100178)
       詹妮弗·邓达斯 Jennifer Dundas (id:1084445)
       马特·马洛伊 Matt Malloy (id:1339737)
       阿曼达·皮特 Amanda Peet (id:1013775)
       迈拉·卢克利希亚·泰勒 Myra Lucretia Taylor (id:1160487)
       布鲁斯·奥尔特曼 Bruce Altman (id:1009459)
       乔·格里法西 Joe Grifasi (id:1095497)
       安吉拉·戈塔尔斯 Angela Goethals (id:1092662)
       凯文·苏斯曼 Kevin Sussman (id:1036570)
       威廉·赫特 William Hurt (id:1031849)
       迈克尔·麦格拉斯 Michael McGrath (id:1114999)
       约翰·本杰明·西基 John Benjamin Hickey (id:1092658)
       迪伦·贝克 Dylan Baker (id:1027874)
       苏珊娜·赫弗纳 Suzanne Hevner (id:1101387)
       乔丹·盖尔伯 Jordan Gelber (id:1392366)
       欧嘉·梅雷迪斯 Olga Merediz (id:1116173)
       杰妮·霍蒂谢尔 Jayne Houdyshell (id:1386049)
       沙巴兹·雷 Shabazz Ray (id:1210584)
       雷蒙德·安东尼·托马斯 Raymond Anthony Thomas (id:1156087)
       Sophia Guaspari Sophia Guaspari (id:1092257)
       珠儿·布里梅杰 Jewel Brimage (id:1388888)
       帕梅拉·哈特 Pamela Hart (id:1385864)
       尼尔·琼斯 Neal Jones (id:1103908)
       苏珊·布莱克威尔 Susan Blackwell (id:1336126)
       伦纳德·L·托马斯 Leonard L. Thomas (id:1159711)
       梅丽安·布兰卡特 Myriam Blanckaert (id:1334721)
       Salvatore Cavaliere Salvatore Cavaliere (id:1074687)
       Monet Cunningham Monet Cunningham (id:1173153)
        Jason Diamond (id:1268666)
       Philip M. Gardiner Philip M. Gardiner (id:1216347)
       约瑟夫·奥利维拉 Joseph Oliveira (id:1436526)
       大卫罗姆 David C. Roehm Sr. (id:1019871)
       约翰托宾 John H. Tobin (id:1054866)
       Ray Wineteer Ray Wineteer (id:1204500)
       Kim Staunton Kim Staunton (id:1437211)
       斯科特·鲁丁 Scott Rudin (id:1013731)
       罗纳德·M·博兹曼 Ronald M. Bozman (id:1279124)
       大卫·阿诺德 David Arnold (id:1005192)
       萨尔瓦托雷·托蒂诺 Salvatore Totino (id:1443962)
       克里斯托弗·泰利弗森 Christopher Tellefsen (id:1299036)
       马西娅·德波尼斯 Marcia DeBonis (id:1081264)
       埃伦·路易斯 Ellen Lewis (id:1289949)
       黛布拉·舒特 Debra Schutt (id:1296994)
       克里斯蒂·吉 Kristi Zea (id:1041834)
       安·罗斯 Ann Roth (id:1041745)
       米尔顿·布拉斯 Milton Buras (id:1279615)
       Robert L. Stevenson Robert L. Stevenson (id:1298419)
       艾伦 A. 安彭 Allan A. Apone (id:1277325)
       Werner Sherer Werner Sherer (id:1297436)
       Daniel Lowe Daniel Lowe (id:1030480)
       肯尼·贝茨 Kenny Bates (id:1278088)
       Michael E. Steele Michael E. Steele (id:1012789)
◎简  介

  都勒(塞缪尔?杰克逊 Samuel L. Jackson 饰)是一个失意的黑人商贩,为了能获得孩子的抚养权,他费力地争取到了房屋贷款。在酗酒者分享会上,滴酒不沾的他难掩心中的欢喜,言辞激动。凯文(本?阿弗莱克 Ben Affleck 饰)是一家艺术品基金会的白人律师,他曾经帮助某富豪做过慈善捐助工作。但当老人死后,他却在上司的授意下,接连清洗了基金会的老成员,此举被老人的继承人视为背叛,一纸诉状将其告上法庭。                                    
                                正在此时,一场车祸让都勒和凯文相遇。因为拿错了对方的文件,两人的命运发生了改变。因为错过了约会的时间,都勒的孩子被判由妻子抚养,从此父子难得见面。而凯文也在法庭上被逼上了绝路,陷入了信任危机。这时,两人才发现彼此的对抗只会让事情更糟,但是化敌为友的路途却荆棘丛生……
  1. Video
  2. ID                                       : 1
  3. Format                                   : HEVC
  4. Format/Info                              : High Efficiency Video Coding
  5. Format profile                           : Main [email protected]@High
  6. HDR format                               : Dolby Vision, Version 1.0, dvhe.05.06, BL+RPU
  7. Codec ID                                 : V_MPEGH/ISO/HEVC
  8. Duration                                 : 1 h 38 min
  9. Bit rate                                 : 25.0 Mb/s
  10. Width                                    : 3 840 pixels
  11. Height                                   : 1 634 pixels
  12. Display aspect ratio                     : 2.35:1
  13. Frame rate mode                          : Constant
  14. Frame rate                               : 23.976 (24000/1001/189150) FPS
  15. Color space                              : YUV
  16. Chroma subsampling                       : 4:2:0
  17. Bit depth                                : 10 bits
  18. Bits/(Pixel*Frame)                       : 0.166
  19. Stream size                              : 17.2 GiB (85%)
  20. Default                                  : Yes
  21. Forced                                   : No
  22. Audio #1
  23. ID                                       : 2
  24. Format                                   : DTS XLL
  25. Format/Info                              : Digital Theater Systems
  26. Commercial name                          : DTS-HD Master Audio
  27. Codec ID                                 : A_DTS
  28. Duration                                 : 1 h 38 min
  29. Bit rate mode                            : Variable
  30. Bit rate                                 : 3 945 kb/s
  31. Channel(s)                               : 6 channels
  32. Channel layout                           : C L R Ls Rs LFE
  33. Sampling rate                            : 48.0 kHz
  34. Frame rate                               : 93.750 FPS (512 SPF)
  35. Bit depth                                : 24 bits
  36. Compression mode                         : Lossless
  37. Delay relative to video                  : 3 ms
  38. Stream size                              : 2.72 GiB (13%)
  39. Title                                    : DTS-HD MA 5.1
  40. Language                                 : English
  41. Default                                  : Yes
  42. Forced                                   : No
  43. Audio #2
  44. ID                                       : 3
  45. Format                                   : AC-3
  46. Format/Info                              : Audio Coding 3
  47. Commercial name                          : Dolby Digital
  48. Codec ID                                 : A_AC3
  49. Duration                                 : 1 h 38 min
  50. Bit rate mode                            : Constant
  51. Bit rate                                 : 384 kb/s
  52. Channel(s)                               : 6 channels
  53. Channel layout                           : L R C LFE Ls Rs
  54. Sampling rate                            : 48.0 kHz
  55. Frame rate                               : 31.250 FPS (1536 SPF)
  56. Compression mode                         : Lossy
  57. Stream size                              : 271 MiB (1%)
  58. Language                                 : English
  59. Service kind                             : Complete Main
  60. Default                                  : No
  61. Forced                                   : No
  62. Text #1
  63. ID                                       : 4
  64. Format                                   : UTF-8
  65. Codec ID                                 : S_TEXT/UTF8
  66. Codec ID/Info                            : UTF-8 Plain Text
  67. Duration                                 : 1 h 32 min
  68. Bit rate                                 : 60 b/s
  69. Count of elements                        : 968
  70. Stream size                              : 40.7 KiB (0%)
  71. Title                                    : German
  72. Language                                 : German
  73. Default                                  : No
  74. Forced                                   : No
  75. Text #2
  76. ID                                       : 5
  77. Format                                   : UTF-8
  78. Codec ID                                 : S_TEXT/UTF8
  79. Codec ID/Info                            : UTF-8 Plain Text
  80. Duration                                 : 1 h 38 min
  81. Bit rate                                 : 72 b/s
  82. Count of elements                        : 1505
  83. Stream size                              : 51.8 KiB (0%)
  84. Title                                    : English CC
  85. Language                                 : English
  86. Default                                  : No
  87. Forced                                   : No
  88. Text #3
  89. ID                                       : 6
  90. Format                                   : UTF-8
  91. Codec ID                                 : S_TEXT/UTF8
  92. Codec ID/Info                            : UTF-8 Plain Text
  93. Duration                                 : 1 h 32 min
  94. Bit rate                                 : 58 b/s
  95. Count of elements                        : 958
  96. Stream size                              : 39.7 KiB (0%)
  97. Title                                    : Spanish Latin American
  98. Language                                 : Spanish
  99. Default                                  : No
  100. Forced                                   : No
  101. Text #4
  102. ID                                       : 7
  103. Format                                   : UTF-8
  104. Codec ID                                 : S_TEXT/UTF8
  105. Codec ID/Info                            : UTF-8 Plain Text
  106. Duration                                 : 1 h 32 min
  107. Bit rate                                 : 53 b/s
  108. Count of elements                        : 1149
  109. Stream size                              : 36.2 KiB (0%)
  110. Title                                    : French European
  111. Language                                 : French
  112. Default                                  : No
  113. Forced                                   : No
  114. Text #5
  115. ID                                       : 8
  116. Format                                   : UTF-8
  117. Codec ID                                 : S_TEXT/UTF8
  118. Codec ID/Info                            : UTF-8 Plain Text
  119. Duration                                 : 1 h 31 min
  120. Bit rate                                 : 49 b/s
  121. Count of elements                        : 820
  122. Stream size                              : 33.0 KiB (0%)
  123. Title                                    : Dutch
  124. Language                                 : Dutch
  125. Default                                  : No
  126. Forced                                   : No
  127. Text #6
  128. ID                                       : 9
  129. Format                                   : UTF-8
  130. Codec ID                                 : S_TEXT/UTF8
  131. Codec ID/Info                            : UTF-8 Plain Text
  132. Duration                                 : 1 h 32 min
  133. Bit rate                                 : 55 b/s
  134. Count of elements                        : 951
  135. Stream size                              : 37.5 KiB (0%)
  136. Title                                    : Portuguese Brazilian
  137. Language                                 : Portuguese
  138. Default                                  : No
  139. Forced                                   : No
  140. Text #7
  141. ID                                       : 10
  142. Format                                   : PGS
  143. Muxing mode                              : zlib
  144. Codec ID                                 : S_HDMV/PGS
  145. Codec ID/Info                            : Picture based subtitle format used on BDs/HD-DVDs
  146. Duration                                 : 1 h 31 min
  147. Bit rate                                 : 44.8 kb/s
  148. Count of elements                        : 2350
  149. Stream size                              : 29.2 MiB (0%)
  150. Title                                    : English
  151. Language                                 : English
  152. Default                                  : No
  153. Forced                                   : No
  154. Text #8
  155. ID                                       : 11
  156. Format                                   : PGS
  157. Muxing mode                              : zlib
  158. Codec ID                                 : S_HDMV/PGS
  159. Codec ID/Info                            : Picture based subtitle format used on BDs/HD-DVDs
  160. Duration                                 : 1 h 32 min
  161. Bit rate                                 : 46.4 kb/s
  162. Count of elements                        : 2498
  163. Stream size                              : 30.6 MiB (0%)
  164. Title                                    : English (SDH)
  165. Language                                 : English
  166. Default                                  : No
  167. Forced                                   : No
  168. Text #9
  169. ID                                       : 12
  170. Format                                   : PGS
  171. Muxing mode                              : zlib
  172. Codec ID                                 : S_HDMV/PGS
  173. Codec ID/Info                            : Picture based subtitle format used on BDs/HD-DVDs
  174. Duration                                 : 1 h 31 min
  175. Bit rate                                 : 20.2 kb/s
  176. Count of elements                        : 1620
  177. Stream size                              : 13.2 MiB (0%)
  178. Title                                    : Dutch
  179. Language                                 : Dutch
  180. Default                                  : No
  181. Forced                                   : No
  182. Text #10
  183. ID                                       : 13
  184. Format                                   : PGS
  185. Muxing mode                              : zlib
  186. Codec ID                                 : S_HDMV/PGS
  187. Codec ID/Info                            : Picture based subtitle format used on BDs/HD-DVDs
  188. Duration                                 : 1 h 32 min
  189. Bit rate                                 : 42.8 kb/s
  190. Count of elements                        : 2362
  191. Stream size                              : 28.3 MiB (0%)
  192. Title                                    : French
  193. Language                                 : French
  194. Default                                  : No
  195. Forced                                   : No
  196. Text #11
  197. ID                                       : 14
  198. Format                                   : PGS
  199. Muxing mode                              : zlib
  200. Codec ID                                 : S_HDMV/PGS
  201. Codec ID/Info                            : Picture based subtitle format used on BDs/HD-DVDs
  202. Duration                                 : 1 h 32 min
  203. Bit rate                                 : 35.2 kb/s
  204. Count of elements                        : 1902
  205. Stream size                              : 23.3 MiB (0%)
  206. Title                                    : Portuguese (Brazilian)
  207. Language                                 : Portuguese
  208. Default                                  : No
  209. Forced                                   : No
  210. Text #12
  211. ID                                       : 15
  212. Format                                   : PGS
  213. Muxing mode                              : zlib
  214. Codec ID                                 : S_HDMV/PGS
  215. Codec ID/Info                            : Picture based subtitle format used on BDs/HD-DVDs
  216. Duration                                 : 1 h 32 min
  217. Bit rate                                 : 35.8 kb/s
  218. Count of elements                        : 1934
  219. Stream size                              : 23.7 MiB (0%)
  220. Title                                    : Spanish (Latin American)
  221. Language                                 : Spanish
  222. Default                                  : No
  223. Forced                                   : No
  224. Menu
  225. 00:00:00.000                             : en:Chapter 01
  226. 00:06:06.908                             : en:Chapter 02
  227. 00:10:28.378                             : en:Chapter 03
  228. 00:14:56.146                             : en:Chapter 04
  229. 00:23:29.242                             : en:Chapter 05
  230. 00:31:45.071                             : en:Chapter 06
  231. 00:40:13.538                             : en:Chapter 07
  232. 00:49:47.195                             : en:Chapter 08
  233. 00:54:56.629                             : en:Chapter 09
  234. 00:59:56.346                             : en:Chapter 10
  235. 01:03:13.918                             : en:Chapter 11
  236. 01:08:21.810                             : en:Chapter 12
  237. 01:15:07.298                             : en:Chapter 13
  238. 01:24:22.645                             : en:Chapter 14
  239. 01:29:53.685                             : en:Chapter 15
复制代码




                                       
                                       

                                       
                                       
                                       




Changing.Lanes.2002.2160p.WEB-DL.DTS-HD.MA.5.1.DV.MKV.x265-DVSUX.torrent (25.98 KB, 下载次数: 1)
回复

使用道具 举报

您需要登录后才可以回帖 登录 | 立即注册

本版积分规则

QQ|Archiver|手机版|小黑屋|蓝光电影网

GMT+8, 2022-5-20 00:19 , Processed in 0.052116 second(s), 28 queries .

Powered by Discuz! X3.4

Copyright © 2001-2020, Tencent Cloud.

快速回复 返回顶部 返回列表