找回密码
 立即注册

QQ登录

只需一步,快速开始

查看: 31|回复: 0

[其他] 皮囊之下 Under.My.Skin.2020.2160p.STAN.WEB-DL.x265.8bit.SDR.DDP5.1-SMURF 9.62GB

[复制链接]

0

精华

0

好友

2

听众

新手上路

Rank: 2

蓝光币
5
发表于 2022-5-10 08:00:24 | 显示全部楼层 |阅读模式


◎译  名 皮囊之下
◎片  名 Under My Skin
◎年  代 2020
◎产  地 澳大利亚 / 美国
◎类  别 剧情
◎语  言 英语
◎IMDb链接 https://www.imdb.com/title/tt10332272/
◎豆瓣链接 https://movie.douban.com/subject/35237518/
◎片  长 96分钟
◎导  演 大卫·欧唐内 David O'Donnell (id:1446527)
◎编  剧 大卫·欧唐内 David O'Donnell (id:1446527)
◎演  员 埃里克斯·德尼索夫 Alexis Denisof (id:1031897)
       丽芙·休森 Liv Hewson (id:1359046)
       亚历克斯·罗素 Alex Russell (id:1315631)
       黛安娜·霍佩尔 Diana Hopper (id:1405278)
       凯瑟琳·海娜·金 Catherine Haena Kim (id:1045253)
       波比·萨尔沃·门努兹 Bobbi Salv?r Menuez (id:1438292)
       达维达·威廉姆斯 Davida Williams (id:1162803)
       约瑟夫·李·安德森 Joseph Lee Anderson (id:1393152)
       乔治·杜威 Jeffrey Doornbos (id:1432734)
       迈克尔·雷·伊斯卡米拉 Michael Ray Escamilla (id:1351167)
◎简  介

  Denny, a free spirit and artist falls for Ryan, a straight laced lawyer. When Denny questions gender their love is tested.
  1. Video
  2. ID                                       : 1
  3. Format                                   : HEVC
  4. Format/Info                              : High Efficiency Video Coding
  5. Format profile                           : [email protected]@High
  6. Codec ID                                 : V_MPEGH/ISO/HEVC
  7. Duration                                 : 1 h 37 min
  8. Bit rate                                 : 13.8 Mb/s
  9. Width                                    : 3 840 pixels
  10. Height                                   : 2 160 pixels
  11. Display aspect ratio                     : 16:9
  12. Frame rate mode                          : Constant
  13. Frame rate                               : 23.976 (23976/1000/189150) FPS
  14. Original frame rate                      : 23.976 (24000/1001/189150) FPS
  15. Color space                              : YUV
  16. Chroma subsampling                       : 4:2:0
  17. Bit depth                                : 8 bits
  18. Bits/(Pixel*Frame)                       : 0.069
  19. Stream size                              : 9.35 GiB (97%)
  20. Default                                  : Yes
  21. Forced                                   : No
  22. Color range                              : Limited
  23. Color primaries                          : BT.709
  24. Transfer characteristics                 : BT.709
  25. Matrix coefficients                      : BT.709

  26. Audio
  27. ID                                       : 2
  28. Format                                   : E-AC-3
  29. Format/Info                              : Enhanced AC-3
  30. Commercial name                          : Dolby Digital Plus
  31. Codec ID                                 : A_EAC3
  32. Duration                                 : 1 h 37 min
  33. Bit rate mode                            : Constant
  34. Bit rate                                 : 384 kb/s
  35. Channel(s)                               : 6 channels
  36. Channel layout                           : L R C LFE Ls Rs
  37. Sampling rate                            : 48.0 kHz
  38. Frame rate                               : 31.250 FPS (1536 SPF)
  39. Compression mode                         : Lossy
  40. Stream size                              : 267 MiB (3%)
  41. Language                                 : English
  42. Service kind                             : Complete Main
  43. Default                                  : Yes
  44. Forced                                   : No

  45. Text #1
  46. ID                                       : 3
  47. Format                                   : UTF-8
  48. Codec ID                                 : S_TEXT/UTF8
  49. Codec ID/Info                            : UTF-8 Plain Text
  50. Duration                                 : 1 h 31 min
  51. Bit rate                                 : 38 b/s
  52. Count of elements                        : 932
  53. Stream size                              : 25.8 KiB (0%)
  54. Language                                 : English
  55. Default                                  : No
  56. Forced                                   : No

  57. Text #2
  58. ID                                       : 4
  59. Format                                   : UTF-8
  60. Codec ID                                 : S_TEXT/UTF8
  61. Codec ID/Info                            : UTF-8 Plain Text
  62. Duration                                 : 1 h 34 min
  63. Bit rate                                 : 41 b/s
  64. Count of elements                        : 1012
  65. Stream size                              : 28.6 KiB (0%)
  66. Title                                    : SDH
  67. Language                                 : English
  68. Default                                  : No
  69. Forced                                   : No
复制代码






                                       
                                       

                                       
                                       
                                       




Under.My.Skin.2020.2160p.STAN.WEB-DL.x265.8bit.SDR.DDP5.1-SMURF.torrent (24.68 KB, 下载次数: 0)
回复

使用道具 举报

您需要登录后才可以回帖 登录 | 立即注册

本版积分规则

QQ|Archiver|手机版|小黑屋|蓝光电影网

GMT+8, 2022-5-19 23:13 , Processed in 0.054266 second(s), 28 queries .

Powered by Discuz! X3.4

Copyright © 2001-2020, Tencent Cloud.

快速回复 返回顶部 返回列表