找回密码
 立即注册

QQ登录

只需一步,快速开始

查看: 37|回复: 0

[其他] 大巧局 Family.Plot.1976.2160p.BluRay.x264.8bit.SDR.DTS-HD.MA.2.0-SWTYBLZ 42.39GB

[复制链接]

0

精华

0

好友

2

听众

新手上路

Rank: 2

蓝光币
5
发表于 2022-5-9 07:55:51 | 显示全部楼层 |阅读模式


◎译  名 大巧局 / 家庭阴谋 / 奇案
◎片  名 Family Plot
◎年  代 1976
◎产  地 美国
◎类  别 喜剧 / 惊悚 / 犯罪
◎语  言 英语
◎上映日期 1976-04-09
◎IMDb链接 https://www.imdb.com/title/tt0074512/
◎豆瓣评分 7.1/10 (2180人评价)
◎豆瓣链接 https://movie.douban.com/subject/1298371/
◎片  长 121 分钟
◎导  演 阿尔弗雷德·希区柯克 Alfred Hitchcock (id:1025185)
◎编  剧 恩斯特·莱赫曼 Ernest Lehman (id:1037077)
       维克托·坎宁 Victor Canning (id:1020295)
◎演  员 凯伦·布莱克 Karen Black (id:1010618)
       布鲁斯·邓恩 Bruce Dern (id:1019069)
       芭芭拉·哈里斯 Barbara Harris (id:1022842)
       威廉姆·德瓦内 William Devane (id:1055380)
       阿尔弗雷德·希区柯克 Alfred Hitchcock (id:1025185)
       Martin West Martin West (id:1165652)
       查尔斯·泰纳 Charles Tyner (id:1156354)
       约翰·斯特德曼 John Steadman (id:1153600)
       玛吉·雷德蒙德 Marge Redmond (id:1148019)
       弗兰·瑞恩 Fran Ryan (id:1145812)
       凯瑟琳·内斯比特 Cathleen Nesbitt (id:1130251)
       Alexander Lockwood Alexander Lockwood (id:1122831)
       尼可拉斯·科拉山多 Nicholas Colasanto (id:1014028)
       威廉·普林斯 William Prince (id:1007195)
       凯瑟琳·海蒙德 Katherine Helmond (id:1055198)
       伊迪丝·阿特沃特 Edith Atwater (id:1058918)
       Dee Carroll Dee Carroll (id:1069521)
       Elisabeth Brooks Elisabeth Brooks (id:1071270)
       阿兰·弗吉 Alan Fudge (id:1083598)
       理查德·黑尔 Richard Hale (id:1091536)
       John Lehne John Lehne (id:1106599)
       沃伦·肯梅灵 Warren J. Kemmerling (id:1107977)
       埃德·劳特尔 Ed Lauter (id:1111563)
       Louise Lorimer Louise Lorimer (id:1120824)
       阿尔弗雷德·希区柯克 Alfred Hitchcock (id:1025185)
       约翰·威廉姆斯 John Williams (id:1054692)
       Leonard J. South Leonard J. South (id:1029491)
       J·泰瑞·威廉姆斯 J. Terry Williams (id:1300967)
       詹姆斯·W·佩恩 James W. Payne (id:1294162)
       亨利·巴姆斯泰德 Henry Bumstead (id:1033020)
       伊迪丝·海德 Edith Head (id:1041085)
       Jack Barron Jack Barron (id:1277983)
       John Slosser John Slosser (id:1297796)
       霍华德·G·卡赞强 Howard G. Kazanjian (id:1288271)
       Wayne A. Farlow Wayne A. Farlow (id:1087289)
       亚瑟·威德默 Arthur Widmer (id:1324989)
       阿尔伯特·惠特洛克 Albert Whitlock (id:1162773)
       Bill Taylor Bill Taylor (id:1298968)
       Syd Dutton Syd Dutton (id:1038517)
◎简  介

  茱莉亚(Cathleen Nesbitt 饰)年事已高,家财万贯,可是没有子嗣,也就没有名正言顺的继承者,为此,她找到了女巫师布兰奇(芭芭拉·哈里斯 Barbara Harris 饰)。茱莉亚告诉布兰奇,她的妹妹曾有一个私生子,被她送给别人抚养,如今,她想找到这个可怜的孩子,让他继承家产。                                    
                                就这样,布兰奇和情人乔治(布鲁斯·邓恩 Bruce Dern 饰)一起展开了调查,得知领养茱莉亚外甥的那个家庭全员葬身于大火之中,而放火的不是别人,正是他们想要找的那个人——爱德华(威廉姆·德瓦内 William Devane 饰)。如今的爱德华改名换姓,成为了一位珠宝商,狡猾的他害怕当年的罪行曝光,于是雇佣了当年帮他脱罪的马罗尼(艾德·劳特 Ed Lauter 饰),让他将布兰奇一行人杀死。
  1. Video
  2. ID                                       : 1
  3. Format                                   : AVC
  4. Format/Info                              : Advanced Video Codec
  5. Format profile                           : [email protected]
  6. Format settings                          : CABAC / 5 Ref Frames
  7. Format settings, CABAC                   : Yes
  8. Format settings, Reference frames        : 5 frames
  9. Codec ID                                 : V_MPEG4/ISO/AVC
  10. Duration                                 : 2 h 0 min
  11. Bit rate                                 : 47.7 Mb/s
  12. Width                                    : 3 840 pixels
  13. Height                                   : 2 078 pixels
  14. Display aspect ratio                     : 1.85:1
  15. Frame rate mode                          : Constant
  16. Frame rate                               : 23.976 (24000/1001/189150) FPS
  17. Color space                              : YUV
  18. Chroma subsampling                       : 4:2:0
  19. Bit depth                                : 8 bits
  20. Scan type                                : Progressive
  21. Bits/(Pixel*Frame)                       : 0.249
  22. Stream size                              : 40.0 GiB (95%)
  23. Writing library                          : x264 core 157 r2935 545de2f
  24. Encoding settings                        : cabac=1 / ref=5 / deblock=1:-1:-1 / analyse=0x3:0x113 / me=umh / subme=10 / psy=1 / psy_rd=1.00:0.15 / mixed_ref=1 / me_range=48 / chroma_me=1 / trellis=2 / 8x8dct=1 / cqm=0 / deadzone=21,11 / fast_pskip=1 / chroma_qp_offset=-3 / threads=38 / lookahead_threads=3 / sliced_threads=0 / nr=0 / decimate=0 / interlaced=0 / bluray_compat=0 / constrained_intra=0 / bframes=3 / b_pyramid=2 / b_adapt=2 / b_bias=0 / direct=3 / weightb=1 / open_gop=0 / weightp=2 / keyint=250 / keyint_min=23 / scenecut=40 / intra_refresh=0 / rc_lookahead=50 / rc=crf / mbtree=1 / crf=22.0 / qcomp=0.60 / qpmin=0 / qpmax=69 / qpstep=4 / ip_ratio=1.40 / aq=1:1.00
  25. Default                                  : Yes
  26. Forced                                   : No

  27. Audio #1
  28. ID                                       : 2
  29. ID in the original source medium         : 4352 (0x1100)
  30. Format                                   : DTS XLL
  31. Format/Info                              : Digital Theater Systems
  32. Commercial name                          : DTS-HD Master Audio
  33. Codec ID                                 : A_DTS
  34. Duration                                 : 2 h 0 min
  35. Bit rate mode                            : Variable
  36. Bit rate                                 : 1 836 kb/s
  37. Channel(s)                               : 2 channels
  38. Channel layout                           : L R
  39. Sampling rate                            : 48.0 kHz
  40. Frame rate                               : 93.750 FPS (512 SPF)
  41. Bit depth                                : 24 bits
  42. Compression mode                         : Lossless
  43. Stream size                              : 1.54 GiB (4%)
  44. Title                                    : DTS-HD MA 2.0
  45. Language                                 : English
  46. Default                                  : Yes
  47. Forced                                   : No
  48. Original source medium                   : Blu-ray

  49. Audio #2
  50. ID                                       : 3
  51. Format                                   : AC-3
  52. Format/Info                              : Audio Coding 3
  53. Commercial name                          : Dolby Digital
  54. Codec ID                                 : A_AC3
  55. Duration                                 : 2 h 0 min
  56. Bit rate mode                            : Constant
  57. Bit rate                                 : 640 kb/s
  58. Channel(s)                               : 2 channels
  59. Channel layout                           : L R
  60. Sampling rate                            : 48.0 kHz
  61. Frame rate                               : 31.250 FPS (1536 SPF)
  62. Compression mode                         : Lossy
  63. Stream size                              : 550 MiB (1%)
  64. Title                                    : DD 2.0
  65. Language                                 : English
  66. Service kind                             : Complete Main
  67. Default                                  : No
  68. Forced                                   : No

  69. Text #1
  70. ID                                       : 4
  71. Format                                   : UTF-8
  72. Codec ID                                 : S_TEXT/UTF8
  73. Codec ID/Info                            : UTF-8 Plain Text
  74. Duration                                 : 1 h 58 min
  75. Bit rate                                 : 59 b/s
  76. Count of elements                        : 1467
  77. Stream size                              : 51.5 KiB (0%)
  78. Language                                 : English
  79. Default                                  : Yes
  80. Forced                                   : No

  81. Text #2
  82. ID                                       : 5
  83. Format                                   : UTF-8
  84. Codec ID                                 : S_TEXT/UTF8
  85. Codec ID/Info                            : UTF-8 Plain Text
  86. Duration                                 : 1 h 58 min
  87. Bit rate                                 : 61 b/s
  88. Count of elements                        : 1535
  89. Stream size                              : 53.0 KiB (0%)
  90. Title                                    : SDH
  91. Language                                 : English
  92. Default                                  : No
  93. Forced                                   : No

  94. Text #3
  95. ID                                       : 6
  96. ID in the original source medium         : 4768 (0x12A0)
  97. Format                                   : PGS
  98. Muxing mode                              : zlib
  99. Codec ID                                 : S_HDMV/PGS
  100. Codec ID/Info                            : Picture based subtitle format used on BDs/HD-DVDs
  101. Duration                                 : 1 h 58 min
  102. Bit rate                                 : 41.4 kb/s
  103. Count of elements                        : 3084
  104. Stream size                              : 35.1 MiB (0%)
  105. Language                                 : English
  106. Default                                  : No
  107. Forced                                   : No
  108. Original source medium                   : Blu-ray

  109. Text #4
  110. ID                                       : 7
  111. ID in the original source medium         : 4769 (0x12A1)
  112. Format                                   : PGS
  113. Muxing mode                              : zlib
  114. Codec ID                                 : S_HDMV/PGS
  115. Codec ID/Info                            : Picture based subtitle format used on BDs/HD-DVDs
  116. Duration                                 : 1 h 59 min
  117. Bit rate                                 : 33.1 kb/s
  118. Count of elements                        : 2442
  119. Stream size                              : 28.2 MiB (0%)
  120. Language                                 : French
  121. Default                                  : No
  122. Forced                                   : No
  123. Original source medium                   : Blu-ray

  124. Text #5
  125. ID                                       : 8
  126. ID in the original source medium         : 4770 (0x12A2)
  127. Format                                   : PGS
  128. Muxing mode                              : zlib
  129. Codec ID                                 : S_HDMV/PGS
  130. Codec ID/Info                            : Picture based subtitle format used on BDs/HD-DVDs
  131. Duration                                 : 1 h 59 min
  132. Bit rate                                 : 35.4 kb/s
  133. Count of elements                        : 2448
  134. Stream size                              : 30.3 MiB (0%)
  135. Language                                 : Spanish
  136. Default                                  : No
  137. Forced                                   : No
  138. Original source medium                   : Blu-ray

  139. Text #6
  140. ID                                       : 9
  141. ID in the original source medium         : 4771 (0x12A3)
  142. Format                                   : PGS
  143. Muxing mode                              : zlib
  144. Codec ID                                 : S_HDMV/PGS
  145. Codec ID/Info                            : Picture based subtitle format used on BDs/HD-DVDs
  146. Duration                                 : 1 h 58 min
  147. Bit rate                                 : 36.4 kb/s
  148. Count of elements                        : 2691
  149. Stream size                              : 30.8 MiB (0%)
  150. Language                                 : Spanish
  151. Default                                  : No
  152. Forced                                   : No
  153. Original source medium                   : Blu-ray

  154. Text #7
  155. ID                                       : 10
  156. ID in the original source medium         : 4772 (0x12A4)
  157. Format                                   : PGS
  158. Muxing mode                              : zlib
  159. Codec ID                                 : S_HDMV/PGS
  160. Codec ID/Info                            : Picture based subtitle format used on BDs/HD-DVDs
  161. Duration                                 : 1 h 58 min
  162. Bit rate                                 : 19.6 kb/s
  163. Count of elements                        : 2408
  164. Stream size                              : 16.6 MiB (0%)
  165. Language                                 : Japanese
  166. Default                                  : No
  167. Forced                                   : No
  168. Original source medium                   : Blu-ray

  169. Text #8
  170. ID                                       : 11
  171. ID in the original source medium         : 4773 (0x12A5)
  172. Format                                   : PGS
  173. Muxing mode                              : zlib
  174. Codec ID                                 : S_HDMV/PGS
  175. Codec ID/Info                            : Picture based subtitle format used on BDs/HD-DVDs
  176. Duration                                 : 1 h 59 min
  177. Bit rate                                 : 37.3 kb/s
  178. Count of elements                        : 2440
  179. Stream size                              : 31.8 MiB (0%)
  180. Language                                 : German
  181. Default                                  : No
  182. Forced                                   : No
  183. Original source medium                   : Blu-ray

  184. Text #9
  185. ID                                       : 12
  186. ID in the original source medium         : 4774 (0x12A6)
  187. Format                                   : PGS
  188. Muxing mode                              : zlib
  189. Codec ID                                 : S_HDMV/PGS
  190. Codec ID/Info                            : Picture based subtitle format used on BDs/HD-DVDs
  191. Duration                                 : 1 h 59 min
  192. Bit rate                                 : 33.2 kb/s
  193. Count of elements                        : 2442
  194. Stream size                              : 28.3 MiB (0%)
  195. Language                                 : Italian
  196. Default                                  : No
  197. Forced                                   : No
  198. Original source medium                   : Blu-ray

  199. Text #10
  200. ID                                       : 13
  201. ID in the original source medium         : 4775 (0x12A7)
  202. Format                                   : PGS
  203. Muxing mode                              : zlib
  204. Codec ID                                 : S_HDMV/PGS
  205. Codec ID/Info                            : Picture based subtitle format used on BDs/HD-DVDs
  206. Duration                                 : 1 h 59 min
  207. Bit rate                                 : 33.5 kb/s
  208. Count of elements                        : 2438
  209. Stream size                              : 28.6 MiB (0%)
  210. Language                                 : Dutch
  211. Default                                  : No
  212. Forced                                   : No
  213. Original source medium                   : Blu-ray

  214. Text #11
  215. ID                                       : 14
  216. ID in the original source medium         : 4776 (0x12A8)
  217. Format                                   : PGS
  218. Muxing mode                              : zlib
  219. Codec ID                                 : S_HDMV/PGS
  220. Codec ID/Info                            : Picture based subtitle format used on BDs/HD-DVDs
  221. Duration                                 : 1 h 59 min
  222. Bit rate                                 : 35.3 kb/s
  223. Count of elements                        : 2442
  224. Stream size                              : 30.1 MiB (0%)
  225. Language                                 : Danish
  226. Default                                  : No
  227. Forced                                   : No
  228. Original source medium                   : Blu-ray

  229. Text #12
  230. ID                                       : 15
  231. ID in the original source medium         : 4777 (0x12A9)
  232. Format                                   : PGS
  233. Muxing mode                              : zlib
  234. Codec ID                                 : S_HDMV/PGS
  235. Codec ID/Info                            : Picture based subtitle format used on BDs/HD-DVDs
  236. Duration                                 : 1 h 59 min
  237. Bit rate                                 : 32.6 kb/s
  238. Count of elements                        : 2438
  239. Stream size                              : 27.9 MiB (0%)
  240. Language                                 : Finnish
  241. Default                                  : No
  242. Forced                                   : No
  243. Original source medium                   : Blu-ray

  244. Text #13
  245. ID                                       : 16
  246. ID in the original source medium         : 4778 (0x12AA)
  247. Format                                   : PGS
  248. Muxing mode                              : zlib
  249. Codec ID                                 : S_HDMV/PGS
  250. Codec ID/Info                            : Picture based subtitle format used on BDs/HD-DVDs
  251. Duration                                 : 1 h 59 min
  252. Bit rate                                 : 32.1 kb/s
  253. Count of elements                        : 2442
  254. Stream size                              : 27.4 MiB (0%)
  255. Language                                 : Norwegian
  256. Default                                  : No
  257. Forced                                   : No
  258. Original source medium                   : Blu-ray

  259. Text #14
  260. ID                                       : 17
  261. ID in the original source medium         : 4779 (0x12AB)
  262. Format                                   : PGS
  263. Muxing mode                              : zlib
  264. Codec ID                                 : S_HDMV/PGS
  265. Codec ID/Info                            : Picture based subtitle format used on BDs/HD-DVDs
  266. Duration                                 : 1 h 59 min
  267. Bit rate                                 : 33.3 kb/s
  268. Count of elements                        : 2442
  269. Stream size                              : 28.5 MiB (0%)
  270. Language                                 : Swedish
  271. Default                                  : No
  272. Forced                                   : No
  273. Original source medium                   : Blu-ray

  274. Menu
  275. 00:00:00.000                             : en:Chapter 01
  276. 00:10:00.016                             : en:Chapter 02
  277. 00:14:03.592                             : en:Chapter 03
  278. 00:19:57.487                             : en:Chapter 04
  279. 00:30:22.487                             : en:Chapter 05
  280. 00:33:35.680                             : en:Chapter 06
  281. 00:41:30.070                             : en:Chapter 07
  282. 00:46:29.244                             : en:Chapter 08
  283. 00:57:25.984                             : en:Chapter 09
  284. 01:01:03.284                             : en:Chapter 10
  285. 01:07:10.234                             : en:Chapter 11
  286. 01:14:28.714                             : en:Chapter 12
  287. 01:29:11.346                             : en:Chapter 13
  288. 01:37:39.728                             : en:Chapter 14
  289. 01:45:25.777                             : en:Chapter 15
  290. 01:53:51.115                             : en:Chapter 16
  291. 01:56:54.048                             : en:Chapter 17
  292. 01:59:08.891                             : en:Chapter 18
复制代码








                                       
                                       

                                       
                                       
                                       




Family.Plot.1976.2160p.BluRay.x264.8bit.SDR.DTS-HD.MA.2.0-SWTYBLZ.torrent (53.71 KB, 下载次数: 0)
回复

使用道具 举报

您需要登录后才可以回帖 登录 | 立即注册

本版积分规则

QQ|Archiver|手机版|小黑屋|蓝光电影网

GMT+8, 2022-5-20 00:33 , Processed in 0.057459 second(s), 28 queries .

Powered by Discuz! X3.4

Copyright © 2001-2020, Tencent Cloud.

快速回复 返回顶部 返回列表