找回密码
 立即注册

QQ登录

只需一步,快速开始

查看: 44|回复: 0

[其他] 怪尸案 The.Trouble.with.Harry.1955.2160p.BluRay.x265.10bit.SDR.DTS-HD.MA.2.0-SWTYBLZ 40.44GB

[复制链接]

0

精华

0

好友

2

听众

新手上路

Rank: 2

蓝光币
5
发表于 2022-5-9 07:55:46 | 显示全部楼层 |阅读模式


◎译  名 怪尸案 / 哈里的麻烦 / 哈里的纠纷 / 怪尸记
◎片  名 The Trouble with Harry
◎年  代 1955
◎产  地 美国
◎类  别 喜剧 / 悬疑
◎语  言 英语
◎上映日期 1955-10-03(美国)
◎IMDb链接 https://www.imdb.com/title/tt0048750/
◎豆瓣评分 7.5/10 (16484人评价)
◎豆瓣链接 https://movie.douban.com/subject/1301232/
◎片  长 99 分钟
◎导  演 阿尔弗雷德·希区柯克 Alfred Hitchcock (id:1025185)
◎编  剧 约翰·迈克尔·海耶斯 John Michael Hayes (id:1045560)
       Jack Trevor Story Jack Trevor Story (id:1002100)
◎演  员 埃德蒙·戈温 Edmund Gwenn (id:1027991)
       约翰·福赛思 John Forsythe (id:1004719)
       米尔翠德·纳特威克 Mildred Natwick (id:1133620)
       米尔德丽德·丹诺克 Mildred Dunnock (id:1084508)
       罗亚尔·达诺 Royal Dano (id:1090287)
       德怀特·马费尔德 Dwight Marfield (id:1124225)
       雪莉·麦克雷恩 Shirley MacLaine (id:1048130)
       阿尔弗雷德·希区柯克 Alfred Hitchcock (id:1025185)
       Jerry Mathers Jerry Mathers (id:1115406)
       Parker Fennelly Parker Fennelly (id:1081773)
       Barry Macollum Barry Macollum (id:1119886)
       Philip Truex Philip Truex (id:1156877)
       阿尔弗雷德·希区柯克 Alfred Hitchcock (id:1025185)
       赫伯特·科尔曼 Herbert Coleman (id:1038416)
       伯纳德·荷曼 Bernard Herrmann (id:1012539)
       罗伯特·伯克斯 Robert Burks (id:1010111)
       阿尔玛·马克罗里 Alma Macrorie (id:1038892)
       哈尔·佩雷拉 Hal Pereira (id:1054359)
       萨姆·库默 Sam Comer (id:1077404)
       埃米尔·库里 Emile Kuri (id:1020114)
       约翰·B·古德曼 John B. Goodman (id:1025609)
       伊迪丝·海德 Edith Head (id:1041085)
       沃利·韦斯特摩 Wally Westmore (id:1161458)
       霍华德·乔斯林 Howard Joslin (id:1031299)
       约翰·P·富尔顿 John P. Fulton (id:1083513)
◎简  介

  小男孩哈尼在森林中漫步时,发现了他的父亲——哈利的尸体。不同于一般谋杀案,这次因为多人都自认为凶手而令案情更加扑朔迷离。亚伯特船长(埃德蒙?格温 Edmund Gwenn 饰)认为是他在打猎射击时误杀了哈利;村落里的老处女葛雷布礼小姐(麦尔翠德?耐维克 Mildred Natwick 饰)认为是因为她为了保住自己的名声而用一只鞋子打了哈利的头部而造成他的死亡;与哈利感情不睦的妻子珍妮佛(雪莉?麦克雷恩 Shirley MacLaine 饰)则认为是她因为反抗哈利的性爱用装牛奶的罐子敲向他的脑袋而造成了他的死亡。真相最后能否水落石出?
◎获奖情况 (共1项)
  第12届金球奖 (1955)
  电影类 年度女新星
   └──雪莉·麦克雷恩 (id:1048130)
  1. Video
  2. ID                                       : 1
  3. Format                                   : HEVC
  4. Format/Info                              : High Efficiency Video Coding
  5. Format profile                           : Main [email protected]@High
  6. Codec ID                                 : V_MPEGH/ISO/HEVC
  7. Duration                                 : 1 h 39 min
  8. Bit rate                                 : 55.4 Mb/s
  9. Width                                    : 3 840 pixels
  10. Height                                   : 2 078 pixels
  11. Display aspect ratio                     : 1.85:1
  12. Frame rate mode                          : Constant
  13. Frame rate                               : 23.976 (24000/1001/189150) FPS
  14. Color space                              : YUV
  15. Chroma subsampling                       : 4:2:0
  16. Bit depth                                : 10 bits
  17. Bits/(Pixel*Frame)                       : 0.289
  18. Stream size                              : 38.4 GiB (96%)
  19. Writing library                          : x265 3.0ed72af837053:[Windows][GCC 8.2.0][64 bit] 10bit
  20. Encoding settings                        : cpuid=1111039 / frame-threads=6 / numa-pools=40 / wpp / no-pmode / no-pme / no-psnr / no-ssim / log-level=2 / input-csp=1 / input-res=3840x2078 / interlace=0 / total-frames=142992 / level-idc=51 / high-tier=1 / uhd-bd=0 / ref=3 / no-allow-non-conformance / repeat-headers / annexb / aud / hrd / info / hash=0 / no-temporal-layers / no-open-gop / min-keyint=1 / keyint=24 / gop-lookahead=0 / bframes=4 / b-adapt=2 / b-pyramid / bframe-bias=0 / rc-lookahead=25 / lookahead-slices=4 / scenecut=40 / radl=0 / no-splice / no-intra-refresh / ctu=64 / min-cu-size=8 / no-rect / no-amp / max-tu-size=32 / tu-inter-depth=1 / tu-intra-depth=1 / limit-tu=0 / rdoq-level=0 / dynamic-rd=0.00 / no-ssim-rd / signhide / no-tskip / nr-intra=0 / nr-inter=0 / no-constrained-intra / strong-intra-smoothing / max-merge=2 / limit-refs=3 / no-limit-modes / me=1 / subme=2 / merange=57 / temporal-mvp / weightp / no-weightb / no-analyze-src-pics / deblock=0:0 / no-sao / no-sao-non-deblock / rd=3 / no-early-skip / rskip / no-fast-intra / no-tskip-fast / no-cu-lossless / no-b-intra / no-splitrd-skip / rdpenalty=0 / psy-rd=2.00 / psy-rdoq=0.00 / no-rd-refine / no-lossless / cbqpoffs=0 / crqpoffs=0 / rc=crf / crf=17.0 / qcomp=0.60 / qpstep=4 / stats-write=0 / stats-read=0 / vbv-maxrate=160000 / vbv-bufsize=160000 / vbv-init=0.9 / crf-max=0.0 / crf-min=0.0 / ipratio=1.40 / pbratio=1.30 / aq-mode=1 / aq-strength=1.00 / cutree / zone-count=0 / no-strict-cbr / qg-size=32 / no-rc-grain / qpmax=69 / qpmin=0 / no-const-vbv / sar=1 / overscan=0 / videoformat=5 / range=0 / colorprim=2 / transfer=2 / colormatrix=2 / chromaloc=0 / display-window=0 / max-cll=0,0 / min-luma=0 / max-luma=1023 / log2-max-poc-lsb=8 / vui-timing-info / vui-hrd-info / slices=1 / opt-qp-pps / opt-ref-list-length-pps / no-multi-pass-opt-rps / scenecut-bias=0.05 / no-opt-cu-delta-qp / no-aq-motion / no-hdr / no-hdr-opt / no-dhdr10-opt / no-idr-recovery-sei / analysis-reuse-level=5 / scale-factor=0 / refine-intra=0 / refine-inter=0 / refine-mv=0 / refine-ctu-distortion=0 / no-limit-sao / ctu-info=0 / no-lowpass-dct / refine-analysis-type=0 / copy-pic=1 / max-ausize-factor=1.0 / no-dynamic-refine / no-single-sei / no-hevc-aq / qp-adaptation-range=1.00
  21. Default                                  : Yes
  22. Forced                                   : No

  23. Audio #1
  24. ID                                       : 2
  25. ID in the original source medium         : 4352 (0x1100)
  26. Format                                   : DTS XLL
  27. Format/Info                              : Digital Theater Systems
  28. Commercial name                          : DTS-HD Master Audio
  29. Codec ID                                 : A_DTS
  30. Duration                                 : 1 h 39 min
  31. Bit rate mode                            : Variable
  32. Bit rate                                 : 1 772 kb/s
  33. Channel(s)                               : 2 channels
  34. Channel layout                           : L R
  35. Sampling rate                            : 48.0 kHz
  36. Frame rate                               : 93.750 FPS (512 SPF)
  37. Bit depth                                : 24 bits
  38. Compression mode                         : Lossless
  39. Stream size                              : 1.23 GiB (3%)
  40. Title                                    : DTS-HD MA 2.0
  41. Language                                 : English
  42. Default                                  : Yes
  43. Forced                                   : No
  44. Original source medium                   : Blu-ray

  45. Audio #2
  46. ID                                       : 3
  47. Format                                   : AC-3
  48. Format/Info                              : Audio Coding 3
  49. Commercial name                          : Dolby Digital
  50. Codec ID                                 : A_AC3
  51. Duration                                 : 1 h 39 min
  52. Bit rate mode                            : Constant
  53. Bit rate                                 : 640 kb/s
  54. Channel(s)                               : 2 channels
  55. Channel layout                           : L R
  56. Sampling rate                            : 48.0 kHz
  57. Frame rate                               : 31.250 FPS (1536 SPF)
  58. Compression mode                         : Lossy
  59. Stream size                              : 455 MiB (1%)
  60. Title                                    : DD 2.0
  61. Language                                 : English
  62. Service kind                             : Complete Main
  63. Default                                  : No
  64. Forced                                   : No

  65. Text #1
  66. ID                                       : 4
  67. Format                                   : UTF-8
  68. Codec ID                                 : S_TEXT/UTF8
  69. Codec ID/Info                            : UTF-8 Plain Text
  70. Duration                                 : 1 h 35 min
  71. Bit rate                                 : 78 b/s
  72. Count of elements                        : 1416
  73. Stream size                              : 55.2 KiB (0%)
  74. Language                                 : English
  75. Default                                  : Yes
  76. Forced                                   : No

  77. Text #2
  78. ID                                       : 5
  79. Format                                   : UTF-8
  80. Codec ID                                 : S_TEXT/UTF8
  81. Codec ID/Info                            : UTF-8 Plain Text
  82. Duration                                 : 1 h 37 min
  83. Bit rate                                 : 78 b/s
  84. Count of elements                        : 1458
  85. Stream size                              : 55.9 KiB (0%)
  86. Title                                    : SDH
  87. Language                                 : English
  88. Default                                  : No
  89. Forced                                   : No

  90. Text #3
  91. ID                                       : 6
  92. ID in the original source medium         : 4768 (0x12A0)
  93. Format                                   : PGS
  94. Muxing mode                              : zlib
  95. Codec ID                                 : S_HDMV/PGS
  96. Codec ID/Info                            : Picture based subtitle format used on BDs/HD-DVDs
  97. Duration                                 : 1 h 37 min
  98. Bit rate                                 : 52.3 kb/s
  99. Count of elements                        : 2939
  100. Stream size                              : 36.4 MiB (0%)
  101. Language                                 : English
  102. Default                                  : No
  103. Forced                                   : No
  104. Original source medium                   : Blu-ray

  105. Text #4
  106. ID                                       : 7
  107. ID in the original source medium         : 4769 (0x12A1)
  108. Format                                   : PGS
  109. Muxing mode                              : zlib
  110. Codec ID                                 : S_HDMV/PGS
  111. Codec ID/Info                            : Picture based subtitle format used on BDs/HD-DVDs
  112. Duration                                 : 1 h 38 min
  113. Bit rate                                 : 48.7 kb/s
  114. Count of elements                        : 2724
  115. Stream size                              : 34.4 MiB (0%)
  116. Language                                 : French
  117. Default                                  : No
  118. Forced                                   : No
  119. Original source medium                   : Blu-ray

  120. Text #5
  121. ID                                       : 8
  122. ID in the original source medium         : 4770 (0x12A2)
  123. Format                                   : PGS
  124. Muxing mode                              : zlib
  125. Codec ID                                 : S_HDMV/PGS
  126. Codec ID/Info                            : Picture based subtitle format used on BDs/HD-DVDs
  127. Duration                                 : 1 h 36 min
  128. Bit rate                                 : 46.3 kb/s
  129. Count of elements                        : 2713
  130. Stream size                              : 31.8 MiB (0%)
  131. Language                                 : Spanish
  132. Default                                  : No
  133. Forced                                   : No
  134. Original source medium                   : Blu-ray

  135. Text #6
  136. ID                                       : 9
  137. ID in the original source medium         : 4771 (0x12A3)
  138. Format                                   : PGS
  139. Muxing mode                              : zlib
  140. Codec ID                                 : S_HDMV/PGS
  141. Codec ID/Info                            : Picture based subtitle format used on BDs/HD-DVDs
  142. Duration                                 : 1 h 36 min
  143. Bit rate                                 : 26.8 kb/s
  144. Count of elements                        : 2475
  145. Stream size                              : 18.4 MiB (0%)
  146. Language                                 : Japanese
  147. Default                                  : No
  148. Forced                                   : No
  149. Original source medium                   : Blu-ray

  150. Text #7
  151. ID                                       : 10
  152. ID in the original source medium         : 4772 (0x12A4)
  153. Format                                   : PGS
  154. Muxing mode                              : zlib
  155. Codec ID                                 : S_HDMV/PGS
  156. Codec ID/Info                            : Picture based subtitle format used on BDs/HD-DVDs
  157. Duration                                 : 1 h 38 min
  158. Bit rate                                 : 50.5 kb/s
  159. Count of elements                        : 2719
  160. Stream size                              : 35.6 MiB (0%)
  161. Language                                 : German
  162. Default                                  : No
  163. Forced                                   : No
  164. Original source medium                   : Blu-ray

  165. Text #8
  166. ID                                       : 11
  167. ID in the original source medium         : 4773 (0x12A5)
  168. Format                                   : PGS
  169. Muxing mode                              : zlib
  170. Codec ID                                 : S_HDMV/PGS
  171. Codec ID/Info                            : Picture based subtitle format used on BDs/HD-DVDs
  172. Duration                                 : 1 h 38 min
  173. Bit rate                                 : 44.5 kb/s
  174. Count of elements                        : 2719
  175. Stream size                              : 31.4 MiB (0%)
  176. Language                                 : Italian
  177. Default                                  : No
  178. Forced                                   : No
  179. Original source medium                   : Blu-ray

  180. Text #9
  181. ID                                       : 12
  182. ID in the original source medium         : 4774 (0x12A6)
  183. Format                                   : PGS
  184. Muxing mode                              : zlib
  185. Codec ID                                 : S_HDMV/PGS
  186. Codec ID/Info                            : Picture based subtitle format used on BDs/HD-DVDs
  187. Duration                                 : 1 h 36 min
  188. Bit rate                                 : 46.5 kb/s
  189. Count of elements                        : 2717
  190. Stream size                              : 32.0 MiB (0%)
  191. Language                                 : Dutch
  192. Default                                  : No
  193. Forced                                   : No
  194. Original source medium                   : Blu-ray

  195. Text #10
  196. ID                                       : 13
  197. ID in the original source medium         : 4775 (0x12A7)
  198. Format                                   : PGS
  199. Muxing mode                              : zlib
  200. Codec ID                                 : S_HDMV/PGS
  201. Codec ID/Info                            : Picture based subtitle format used on BDs/HD-DVDs
  202. Duration                                 : 1 h 36 min
  203. Bit rate                                 : 46.7 kb/s
  204. Count of elements                        : 2717
  205. Stream size                              : 32.1 MiB (0%)
  206. Language                                 : Danish
  207. Default                                  : No
  208. Forced                                   : No
  209. Original source medium                   : Blu-ray

  210. Text #11
  211. ID                                       : 14
  212. ID in the original source medium         : 4776 (0x12A8)
  213. Format                                   : PGS
  214. Muxing mode                              : zlib
  215. Codec ID                                 : S_HDMV/PGS
  216. Codec ID/Info                            : Picture based subtitle format used on BDs/HD-DVDs
  217. Duration                                 : 1 h 38 min
  218. Bit rate                                 : 41.8 kb/s
  219. Count of elements                        : 2719
  220. Stream size                              : 29.5 MiB (0%)
  221. Language                                 : Finnish
  222. Default                                  : No
  223. Forced                                   : No
  224. Original source medium                   : Blu-ray

  225. Text #12
  226. ID                                       : 15
  227. ID in the original source medium         : 4777 (0x12A9)
  228. Format                                   : PGS
  229. Muxing mode                              : zlib
  230. Codec ID                                 : S_HDMV/PGS
  231. Codec ID/Info                            : Picture based subtitle format used on BDs/HD-DVDs
  232. Duration                                 : 1 h 38 min
  233. Bit rate                                 : 43.2 kb/s
  234. Count of elements                        : 2719
  235. Stream size                              : 30.5 MiB (0%)
  236. Language                                 : Norwegian
  237. Default                                  : No
  238. Forced                                   : No
  239. Original source medium                   : Blu-ray

  240. Text #13
  241. ID                                       : 16
  242. ID in the original source medium         : 4778 (0x12AA)
  243. Format                                   : PGS
  244. Muxing mode                              : zlib
  245. Codec ID                                 : S_HDMV/PGS
  246. Codec ID/Info                            : Picture based subtitle format used on BDs/HD-DVDs
  247. Duration                                 : 1 h 36 min
  248. Bit rate                                 : 43.2 kb/s
  249. Count of elements                        : 2717
  250. Stream size                              : 29.7 MiB (0%)
  251. Language                                 : Swedish
  252. Default                                  : No
  253. Forced                                   : No
  254. Original source medium                   : Blu-ray

  255. Menu
  256. 00:00:00.000                             : en:Chapter 01
  257. 00:01:52.070                             : en:Chapter 02
  258. 00:05:15.523                             : en:Chapter 03
  259. 00:14:06.053                             : en:Chapter 04
  260. 00:20:47.496                             : en:Chapter 05
  261. 00:24:20.459                             : en:Chapter 06
  262. 00:38:01.696                             : en:Chapter 07
  263. 00:43:15.259                             : en:Chapter 08
  264. 00:47:22.089                             : en:Chapter 09
  265. 00:54:20.924                             : en:Chapter 10
  266. 00:56:48.988                             : en:Chapter 11
  267. 01:02:55.062                             : en:Chapter 12
  268. 01:10:03.532                             : en:Chapter 13
  269. 01:14:27.880                             : en:Chapter 14
  270. 01:21:21.835                             : en:Chapter 15
  271. 01:26:25.638                             : en:Chapter 16
  272. 01:34:42.760                             : en:Chapter 17
  273. 01:37:19.583                             : en:Chapter 18
复制代码





                                       
                                       

                                       
                                       
                                       




The.Trouble.with.Harry.1955.2160p.BluRay.x265.10bit.SDR.DTS-HD.MA.2.0-SWTYBLZ.torrent (51.3 KB, 下载次数: 1)
回复

使用道具 举报

您需要登录后才可以回帖 登录 | 立即注册

本版积分规则

QQ|Archiver|手机版|小黑屋|蓝光电影网

GMT+8, 2022-5-19 23:35 , Processed in 0.055471 second(s), 28 queries .

Powered by Discuz! X3.4

Copyright © 2001-2020, Tencent Cloud.

快速回复 返回顶部 返回列表