找回密码
 立即注册

QQ登录

只需一步,快速开始

查看: 47|回复: 0

[其他] 本回家了 Ben.Is.Back.2018.2160p.WEB-DL.x265.10bit.HDR.DTS-HD.MA.5.1-NOGRP 12.94GB

[复制链接]

0

精华

0

好友

2

听众

新手上路

Rank: 2

蓝光币
5
发表于 2022-5-8 08:03:08 | 显示全部楼层 |阅读模式


◎译  名 本回家了 / 迷失家缘(港) / 班恩回家(台) / 本回来了 / 本,回来了
◎片  名 Ben is Back
◎年  代 2018
◎产  地 美国
◎类  别 剧情
◎语  言 英语
◎上映日期 2018-09-08(多伦多电影节) / 2018-12-07(美国)
◎IMDb链接 https://www.imdb.com/title/tt7545524/
◎豆瓣评分 7.0/10 (6008人评价)
◎豆瓣链接 https://movie.douban.com/subject/27179199/
◎片  长 103分钟
◎导  演 彼得·赫奇斯 Peter Hedges (id:1009543)
◎编  剧 彼得·赫奇斯 Peter Hedges (id:1009543)
◎演  员 朱莉娅·罗伯茨 Julia Roberts (id:1054532)
       卢卡斯·赫奇斯 Lucas Hedges (id:1340596)
       考特尼·万斯 Courtney B. Vance (id:1031979)
       凯瑟琳·纽顿 Kathryn Newton (id:1174320)
       雷切尔·贝·琼斯 Rachel Bay Jones (id:1402981)
       戴维·萨迪瓦尔 David Zaldivar (id:1402982)
       亚历山德拉·帕克 Alexandra Park (id:1349141)
       迈克尔·埃斯佩尔 Michael Esper (id:1335929)
       蒂姆·金尼 Tim Guinee (id:1041181)
       迈拉·卢克利希亚·泰勒 Myra Lucretia Taylor (id:1160487)
       克里斯汀·格里菲斯 Kristin Griffith (id:1095709)
       亨利·斯特拉姆 Henry Stram (id:1158257)
       比尔·布尔 Bill Buell (id:1073640)
       亚历山德拉·艾布拉姆斯 Alexandra Abrams (id:1392931)
       费斯·洛根 Faith Logan (id:1393240)
       罗伯特·迈尔斯 Robert Myers (id:1234977)
       肖恩·雷伊 Shaun Rey (id:1379239)
       奈杰尔 Nigel (id:1411641)
       Nina Jacobson Nina Jacobson (id:1429108)
       迪肯·辛奇利夫 Dickon Hinchliffe (id:1439766)
◎简  介

  影片故事发生在24小时之内,男主角Ben Burns富有魅力但又烦恼缠身,某个灾难性的圣诞节前夕,他回到了毫不知情的家里。母亲Holly Burns小心谨慎但热烈欢迎了她深爱的儿子,但随后发现他依旧存在着很大的问题,在这可能改变他们一生的24小时之内,母亲要竭尽所能避免家庭分崩离析。                                    
                                万斯将饰演本的继父,他自己有一套教育孩子的方法,因此与Holly发生了直接矛盾。凯瑟琳·牛顿饰演17岁的妹妹Ivy Burns,是位漂亮的歌手,热爱兄长,但不相信他能够变为一个更好的人,不喜欢他对家庭造成的影响,但明白他对母亲的重要性,也知道应该帮助他走入正轨。
◎获奖情况 (共1项)
  第9届北京国际电影节 (2019)
  天坛奖(提名)
   └──彼得·赫奇斯 (id:1009543)
  1. Video
  2. ID                                       : 1
  3. Format                                   : HEVC
  4. Format/Info                              : High Efficiency Video Coding
  5. Format profile                           : Main [email protected]@High
  6. HDR format                               : SMPTE ST 2086, HDR10 compatible
  7. Codec ID                                 : V_MPEGH/ISO/HEVC
  8. Duration                                 : 1 h 43 min
  9. Bit rate                                 : 14.3 Mb/s
  10. Width                                    : 3 832 pixels
  11. Height                                   : 1 604 pixels
  12. Display aspect ratio                     : 2.40:1
  13. Frame rate mode                          : Constant
  14. Frame rate                               : 23.976 FPS
  15. Color space                              : YUV
  16. Chroma subsampling                       : 4:2:0 (Type 2)
  17. Bit depth                                : 10 bits
  18. Bits/(Pixel*Frame)                       : 0.097
  19. Stream size                              : 10.3 GiB (80%)
  20. Default                                  : Yes
  21. Forced                                   : No
  22. Color range                              : Limited
  23. Color primaries                          : BT.2020
  24. Transfer characteristics                 : PQ
  25. Matrix coefficients                      : BT.2020 non-constant
  26. Mastering display color primaries        : BT.2020
  27. Mastering display luminance              : min: 0.0001 cd/m2, max: 1000 cd/m2
  28. Maximum Content Light Level              : 10000 cd/m2
  29. Maximum Frame-Average Light Level        : 839 cd/m2

  30. Audio #1
  31. ID                                       : 2
  32. Format                                   : DTS XLL
  33. Format/Info                              : Digital Theater Systems
  34. Commercial name                          : DTS-HD Master Audio
  35. Codec ID                                 : A_DTS
  36. Duration                                 : 1 h 43 min
  37. Bit rate mode                            : Variable
  38. Bit rate                                 : 3 148 kb/s
  39. Channel(s)                               : 6 channels
  40. Channel layout                           : C L R Ls Rs LFE
  41. Sampling rate                            : 48.0 kHz
  42. Frame rate                               : 93.750 FPS (512 SPF)
  43. Bit depth                                : 24 bits
  44. Compression mode                         : Lossless
  45. Delay relative to video                  : 3 s 0 ms
  46. Stream size                              : 2.27 GiB (18%)
  47. Title                                    : DTS-HD MA 5.1
  48. Language                                 : English
  49. Default                                  : Yes
  50. Forced                                   : No

  51. Audio #2
  52. ID                                       : 3
  53. Format                                   : AC-3
  54. Format/Info                              : Audio Coding 3
  55. Commercial name                          : Dolby Digital
  56. Codec ID                                 : A_AC3
  57. Duration                                 : 1 h 43 min
  58. Bit rate mode                            : Constant
  59. Bit rate                                 : 384 kb/s
  60. Channel(s)                               : 6 channels
  61. Channel layout                           : L R C LFE Ls Rs
  62. Sampling rate                            : 48.0 kHz
  63. Frame rate                               : 31.250 FPS (1536 SPF)
  64. Compression mode                         : Lossy
  65. Stream size                              : 284 MiB (2%)
  66. Title                                    : DD 5.1
  67. Language                                 : English
  68. Service kind                             : Complete Main
  69. Default                                  : No
  70. Forced                                   : No

  71. Text #1
  72. ID                                       : 4
  73. Format                                   : UTF-8
  74. Codec ID                                 : S_TEXT/UTF8
  75. Codec ID/Info                            : UTF-8 Plain Text
  76. Duration                                 : 1 h 34 min
  77. Bit rate                                 : 66 b/s
  78. Count of elements                        : 1720
  79. Stream size                              : 46.2 KiB (0%)
  80. Title                                    : English CC
  81. Language                                 : English
  82. Default                                  : Yes
  83. Forced                                   : No

  84. Text #2
  85. ID                                       : 5
  86. Format                                   : UTF-8
  87. Codec ID                                 : S_TEXT/UTF8
  88. Codec ID/Info                            : UTF-8 Plain Text
  89. Duration                                 : 1 h 33 min
  90. Bit rate                                 : 74 b/s
  91. Count of elements                        : 1222
  92. Stream size                              : 51.4 KiB (0%)
  93. Title                                    : Arabic
  94. Language                                 : Arabic
  95. Default                                  : No
  96. Forced                                   : No

  97. Text #3
  98. ID                                       : 6
  99. Format                                   : PGS
  100. Muxing mode                              : zlib
  101. Codec ID                                 : S_HDMV/PGS
  102. Codec ID/Info                            : Picture based subtitle format used on BDs/HD-DVDs
  103. Duration                                 : 1 h 34 min
  104. Bit rate                                 : 69.9 kb/s
  105. Count of elements                        : 2900
  106. Stream size                              : 47.0 MiB (0%)
  107. Language                                 : English
  108. Default                                  : No
  109. Forced                                   : No

  110. Text #4
  111. ID                                       : 7
  112. Format                                   : PGS
  113. Muxing mode                              : zlib
  114. Codec ID                                 : S_HDMV/PGS
  115. Codec ID/Info                            : Picture based subtitle format used on BDs/HD-DVDs
  116. Duration                                 : 1 h 34 min
  117. Bit rate                                 : 55.2 kb/s
  118. Count of elements                        : 2532
  119. Stream size                              : 37.2 MiB (0%)
  120. Language                                 : Spanish
  121. Default                                  : No
  122. Forced                                   : No

  123. Menu
  124. 00:00:00.000                             : en:Chapter 01
  125. 00:08:02.000                             : en:Chapter 02
  126. 00:16:15.000                             : en:Chapter 03
  127. 00:27:49.000                             : en:Chapter 04
  128. 00:37:37.000                             : en:Chapter 05
  129. 00:49:35.000                             : en:Chapter 06
  130. 00:57:02.000                             : en:Chapter 07
  131. 01:09:26.000                             : en:Chapter 08
  132. 01:17:33.000                             : en:Chapter 09
  133. 01:26:38.000                             : en:Chapter 10
  134. 01:36:00.000                             : en:Chapter 11
复制代码




                                       
                                       

                                       
                                       
                                       




Ben.Is.Back.2018.2160p.WEB-DL.x265.10bit.HDR.DTS-HD.MA.5.1-NOGRP.torrent (16.82 KB, 下载次数: 1)
回复

使用道具 举报

您需要登录后才可以回帖 登录 | 立即注册

本版积分规则

QQ|Archiver|手机版|小黑屋|蓝光电影网

GMT+8, 2022-5-19 23:17 , Processed in 0.053806 second(s), 28 queries .

Powered by Discuz! X3.4

Copyright © 2001-2020, Tencent Cloud.

快速回复 返回顶部 返回列表