找回密码
 立即注册

QQ登录

只需一步,快速开始

查看: 36|回复: 0

[其他] 神秘海域 Uncharted.2022.2160p.BluRay.x265.10bit.SDR.DTS-HD.MA.TrueHD.7.1.Atmos-SWTYBLZ 33.54GB

[复制链接]

0

精华

0

好友

2

听众

新手上路

Rank: 2

蓝光币
5
发表于 2022-5-8 08:02:42 | 显示全部楼层 |阅读模式


◎译  名 神秘海域 / 秘境探险(港 / 台) / 神秘海域:德雷克船长的宝藏 / Uncharted: Drake's Fortune
◎片  名 Uncharted
◎年  代 2022
◎产  地 美国
◎类  别 动作 / 冒险
◎语  言 英语 / 西班牙语
◎上映日期 2022-03-14(中国大陆) / 2022-02-18(美国)
◎IMDb链接 https://www.imdb.com/title/tt1464335/
◎豆瓣评分 6.3/10 (65843人评价)
◎豆瓣链接 https://movie.douban.com/subject/3822687/
◎片  长 116分钟
◎导  演 鲁本·弗雷斯彻 Ruben Fleischer (id:1274906)
◎编  剧 雷夫·贾金斯 Rafe Judkins (id:1178355)
       阿特·马库姆 Art Marcum (id:1306770)
       马特·霍洛维 Matt Holloway (id:1286819)
◎演  员 汤姆·赫兰德 Tom Holland (id:1325351)
       马克·沃尔伯格 Mark Wahlberg (id:1035674)
       索菲娅·阿里 Sophia Ali (id:1391500)
       塔蒂·加布里埃 Tati Gabrielle (id:1378292)
       安东尼奥·班德拉斯 Antonio Banderas (id:1022582)
       史蒂芬·威丁顿 Steven Waddington (id:1319284)
       乔治娅·古德曼 Georgia Goodman (id:1392804)
       迪尔梅德·默塔 Diarmaid Murtagh (id:1332703)
       约瑟夫·巴德拉玛 Joseph Balderrama (id:1400929)
       阿拉娜·博登 Alana Boden (id:1385424)
       罗伯特?马瑟 Robert Maaser (id:1414390)
       埃斯金迪尔·特斯法 Eskindir Tesfay (id:1395237)
       曼纽尔·德·巴拉斯 Manuel de Blas (id:1001008)
       帕特丽夏·梅登 Patricia Meeden (id:1445766)
       诺兰·诺斯 Nolan North (id:1134542)
       吉米·哈特 Jimmy Hart (id:1303375)
       皮鲁·埃斯贝克 Pilou Asb?k (id:1032805)
       莎拉·佩特里克 Sarah Petrick (id:1446700)
       平吉·莫里 Pingi Moli  (id:1468362)
       蒂尔南·琼斯 Tiernan Jones  (id:1468363)
       鲁迪·潘科 Rudy Pankow  (id:1468364)
       乔纳森·法伊拉 Jonathan Failla  (id:1468365)
       安东尼·托马斯 Anthony Thomas  (id:1468366)
       彼得·锡顿-克拉克  Peter Seaton-Clark  (id:1468367)
       查尔斯·罗文 Charles Roven (id:1023082)
       阿维·阿拉德 Avi Arad (id:1462069)
       亚历克斯·加特纳 Alex Gartner (id:1423137)
       阿里·阿拉德 Ari Arad (id:1463185)
       鲁本·弗雷斯彻 Ruben Fleischer (id:1274906)
       阿萨德·齐齐尔巴什 Asad Qizilbash (id:1463186)
       丁正勋 Chung-hoon Chung (id:1076638)
       玛琳·斯图尔特 Marlene Stewart (id:1051194)
       贾斯汀·理查蒙德 Justin Richmond (id:1397058)
◎简  介

  足智多谋的内森·德雷克(汤姆·赫兰德 饰)和经验丰富的寻宝者维克多·苏利文(马克·沃尔伯格 饰)组成搭档,追寻费迪南·麦哲伦500年前遗失的宝藏。一开始,这似乎只是个简单的寻宝工作,但很快演变成了一场惊险刺激、横跨全球的竞赛。他们必须赶在冷酷无情的蒙卡达(安东尼奥·班德拉斯 饰)之前寻得宝藏。蒙卡达坚信他和他的家族才是宝藏的正当继承人。若内森和苏利文能破译线索,解开这世界上最古老的谜团,他们便能找到价值50亿美元的宝藏,甚至还可能找到内森失踪已久的哥哥……但首先,他们必须学会通力合作。
  1. Video
  2. ID                                       : 1
  3. Format                                   : HEVC
  4. Format/Info                              : High Efficiency Video Coding
  5. Format profile                           : Main [email protected]@High
  6. Codec ID                                 : V_MPEGH/ISO/HEVC
  7. Duration                                 : 1 h 55 min
  8. Bit rate                                 : 32.4 Mb/s
  9. Width                                    : 3 840 pixels
  10. Height                                   : 1 608 pixels
  11. Display aspect ratio                     : 2.40:1
  12. Frame rate mode                          : Constant
  13. Frame rate                               : 23.976 (24000/1001/189150) FPS
  14. Color space                              : YUV
  15. Chroma subsampling                       : 4:2:0
  16. Bit depth                                : 10 bits
  17. Bits/(Pixel*Frame)                       : 0.219
  18. Stream size                              : 26.2 GiB (78%)
  19. Writing library                          : x265 3.0ed72af837053:[Windows][GCC 8.2.0][64 bit] 10bit
  20. Encoding settings                        : cpuid=1111039 / frame-threads=6 / numa-pools=40 / wpp / no-pmode / no-pme / no-psnr / no-ssim / log-level=2 / input-csp=1 / input-res=3840x1608 / interlace=0 / total-frames=166707 / level-idc=51 / high-tier=1 / uhd-bd=0 / ref=3 / no-allow-non-conformance / repeat-headers / annexb / aud / hrd / info / hash=0 / no-temporal-layers / no-open-gop / min-keyint=1 / keyint=24 / gop-lookahead=0 / bframes=4 / b-adapt=2 / b-pyramid / bframe-bias=0 / rc-lookahead=25 / lookahead-slices=4 / scenecut=40 / radl=0 / no-splice / no-intra-refresh / ctu=64 / min-cu-size=8 / no-rect / no-amp / max-tu-size=32 / tu-inter-depth=1 / tu-intra-depth=1 / limit-tu=0 / rdoq-level=0 / dynamic-rd=0.00 / no-ssim-rd / signhide / no-tskip / nr-intra=0 / nr-inter=0 / no-constrained-intra / strong-intra-smoothing / max-merge=2 / limit-refs=3 / no-limit-modes / me=1 / subme=2 / merange=57 / temporal-mvp / weightp / no-weightb / no-analyze-src-pics / deblock=0:0 / no-sao / no-sao-non-deblock / rd=3 / no-early-skip / rskip / no-fast-intra / no-tskip-fast / no-cu-lossless / no-b-intra / no-splitrd-skip / rdpenalty=0 / psy-rd=2.00 / psy-rdoq=0.00 / no-rd-refine / no-lossless / cbqpoffs=0 / crqpoffs=0 / rc=crf / crf=16.0 / qcomp=0.60 / qpstep=4 / stats-write=0 / stats-read=0 / vbv-maxrate=160000 / vbv-bufsize=160000 / vbv-init=0.9 / crf-max=0.0 / crf-min=0.0 / ipratio=1.40 / pbratio=1.30 / aq-mode=1 / aq-strength=1.00 / cutree / zone-count=0 / no-strict-cbr / qg-size=32 / no-rc-grain / qpmax=69 / qpmin=0 / no-const-vbv / sar=1 / overscan=0 / videoformat=5 / range=0 / colorprim=2 / transfer=2 / colormatrix=2 / chromaloc=0 / display-window=0 / max-cll=0,0 / min-luma=0 / max-luma=1023 / log2-max-poc-lsb=8 / vui-timing-info / vui-hrd-info / slices=1 / opt-qp-pps / opt-ref-list-length-pps / no-multi-pass-opt-rps / scenecut-bias=0.05 / no-opt-cu-delta-qp / no-aq-motion / no-hdr / no-hdr-opt / no-dhdr10-opt / no-idr-recovery-sei / analysis-reuse-level=5 / scale-factor=0 / refine-intra=0 / refine-inter=0 / refine-mv=0 / refine-ctu-distortion=0 / no-limit-sao / ctu-info=0 / no-lowpass-dct / refine-analysis-type=0 / copy-pic=1 / max-ausize-factor=1.0 / no-dynamic-refine / no-single-sei / no-hevc-aq / qp-adaptation-range=1.00
  21. Default                                  : Yes
  22. Forced                                   : No

  23. Audio #1
  24. ID                                       : 2
  25. ID in the original source medium         : 4352 (0x1100)
  26. Format                                   : MLP FBA 16-ch
  27. Format/Info                              : Meridian Lossless Packing FBA with 16-channel presentation
  28. Commercial name                          : Dolby TrueHD with Dolby Atmos
  29. Codec ID                                 : A_TRUEHD
  30. Duration                                 : 1 h 55 min
  31. Bit rate mode                            : Variable
  32. Bit rate                                 : 4 081 kb/s
  33. Maximum bit rate                         : 6 975 kb/s
  34. Channel(s)                               : 8 channels
  35. Channel layout                           : L R C LFE Ls Rs Lb Rb
  36. Sampling rate                            : 48.0 kHz
  37. Frame rate                               : 1 200.000 FPS (40 SPF)
  38. Bit depth                                : 24 bits
  39. Compression mode                         : Lossless
  40. Stream size                              : 3.30 GiB (10%)
  41. Title                                    : TrueHD 7.1 Atmos
  42. Language                                 : English
  43. Default                                  : Yes
  44. Forced                                   : No
  45. Original source medium                   : Blu-ray
  46. Number of dynamic objects                : 11
  47. Bed channel count                        : 1 channel
  48. Bed channel configuration                : LFE

  49. Audio #2
  50. ID                                       : 3
  51. Format                                   : DTS XLL
  52. Format/Info                              : Digital Theater Systems
  53. Commercial name                          : DTS-HD Master Audio
  54. Codec ID                                 : A_DTS
  55. Duration                                 : 1 h 55 min
  56. Bit rate mode                            : Variable
  57. Bit rate                                 : 3 921 kb/s
  58. Channel(s)                               : 8 channels
  59. Channel layout                           : C L R LFE Lb Rb Lss Rss
  60. Sampling rate                            : 48.0 kHz
  61. Frame rate                               : 93.750 FPS (512 SPF)
  62. Bit depth                                : 24 bits
  63. Compression mode                         : Lossless
  64. Stream size                              : 3.17 GiB (10%)
  65. Title                                    : DTS-HD MA 7.1
  66. Language                                 : English
  67. Default                                  : No
  68. Forced                                   : No

  69. Audio #3
  70. ID                                       : 4
  71. ID in the original source medium         : 4352 (0x1100)
  72. Format                                   : AC-3
  73. Format/Info                              : Audio Coding 3
  74. Commercial name                          : Dolby Digital
  75. Codec ID                                 : A_AC3
  76. Duration                                 : 1 h 55 min
  77. Bit rate mode                            : Constant
  78. Bit rate                                 : 640 kb/s
  79. Channel(s)                               : 6 channels
  80. Channel layout                           : L R C LFE Ls Rs
  81. Sampling rate                            : 48.0 kHz
  82. Frame rate                               : 31.250 FPS (1536 SPF)
  83. Compression mode                         : Lossy
  84. Stream size                              : 530 MiB (2%)
  85. Title                                    : DD 5.1
  86. Language                                 : English
  87. Service kind                             : Complete Main
  88. Default                                  : No
  89. Forced                                   : No
  90. Original source medium                   : Blu-ray

  91. Text #1
  92. ID                                       : 5
  93. Format                                   : UTF-8
  94. Codec ID                                 : S_TEXT/UTF8
  95. Codec ID/Info                            : UTF-8 Plain Text
  96. Duration                                 : 4 min 20 s
  97. Bit rate                                 : 17 b/s
  98. Count of elements                        : 23
  99. Stream size                              : 573 Bytes (0%)
  100. Title                                    : FORCED
  101. Language                                 : English
  102. Default                                  : No
  103. Forced                                   : Yes

  104. Text #2
  105. ID                                       : 6
  106. Format                                   : UTF-8
  107. Codec ID                                 : S_TEXT/UTF8
  108. Codec ID/Info                            : UTF-8 Plain Text
  109. Duration                                 : 1 h 47 min
  110. Bit rate                                 : 57 b/s
  111. Count of elements                        : 1409
  112. Stream size                              : 45.3 KiB (0%)
  113. Language                                 : English
  114. Default                                  : Yes
  115. Forced                                   : No

  116. Text #3
  117. ID                                       : 7
  118. Format                                   : UTF-8
  119. Codec ID                                 : S_TEXT/UTF8
  120. Codec ID/Info                            : UTF-8 Plain Text
  121. Duration                                 : 1 h 48 min
  122. Bit rate                                 : 63 b/s
  123. Count of elements                        : 1559
  124. Stream size                              : 50.0 KiB (0%)
  125. Title                                    : SDH
  126. Language                                 : English
  127. Default                                  : No
  128. Forced                                   : No

  129. Text #4
  130. ID                                       : 8
  131. ID in the original source medium         : 4768 (0x12A0)
  132. Format                                   : PGS
  133. Muxing mode                              : zlib
  134. Codec ID                                 : S_HDMV/PGS
  135. Codec ID/Info                            : Picture based subtitle format used on BDs/HD-DVDs
  136. Duration                                 : 1 h 48 min
  137. Bit rate                                 : 39.3 kb/s
  138. Count of elements                        : 3205
  139. Stream size                              : 30.4 MiB (0%)
  140. Language                                 : English
  141. Default                                  : No
  142. Forced                                   : No
  143. Original source medium                   : Blu-ray

  144. Text #5
  145. ID                                       : 9
  146. ID in the original source medium         : 4769 (0x12A1)
  147. Format                                   : PGS
  148. Muxing mode                              : zlib
  149. Codec ID                                 : S_HDMV/PGS
  150. Codec ID/Info                            : Picture based subtitle format used on BDs/HD-DVDs
  151. Duration                                 : 1 h 47 min
  152. Bit rate                                 : 33.4 kb/s
  153. Count of elements                        : 2670
  154. Stream size                              : 25.7 MiB (0%)
  155. Language                                 : English
  156. Default                                  : No
  157. Forced                                   : No
  158. Original source medium                   : Blu-ray

  159. Text #6
  160. ID                                       : 10
  161. ID in the original source medium         : 4769 (0x12A1)
  162. Format                                   : PGS
  163. Muxing mode                              : zlib
  164. Codec ID                                 : S_HDMV/PGS
  165. Codec ID/Info                            : Picture based subtitle format used on BDs/HD-DVDs
  166. Duration                                 : 4 min 20 s
  167. Bit rate                                 : 11.1 kb/s
  168. Count of elements                        : 46
  169. Stream size                              : 352 KiB (0%)
  170. Language                                 : English
  171. Default                                  : No
  172. Forced                                   : No
  173. Original source medium                   : Blu-ray

  174. Text #7
  175. ID                                       : 11
  176. ID in the original source medium         : 4770 (0x12A2)
  177. Format                                   : PGS
  178. Muxing mode                              : zlib
  179. Codec ID                                 : S_HDMV/PGS
  180. Codec ID/Info                            : Picture based subtitle format used on BDs/HD-DVDs
  181. Duration                                 : 1 h 53 min
  182. Bit rate                                 : 25.6 kb/s
  183. Count of elements                        : 2710
  184. Stream size                              : 20.8 MiB (0%)
  185. Language                                 : Chinese
  186. Default                                  : No
  187. Forced                                   : No
  188. Original source medium                   : Blu-ray

  189. Text #8
  190. ID                                       : 12
  191. ID in the original source medium         : 4771 (0x12A3)
  192. Format                                   : PGS
  193. Muxing mode                              : zlib
  194. Codec ID                                 : S_HDMV/PGS
  195. Codec ID/Info                            : Picture based subtitle format used on BDs/HD-DVDs
  196. Duration                                 : 1 h 53 min
  197. Bit rate                                 : 25.3 kb/s
  198. Count of elements                        : 2708
  199. Stream size                              : 20.6 MiB (0%)
  200. Language                                 : Chinese
  201. Default                                  : No
  202. Forced                                   : No
  203. Original source medium                   : Blu-ray

  204. Text #9
  205. ID                                       : 13
  206. ID in the original source medium         : 4772 (0x12A4)
  207. Format                                   : PGS
  208. Muxing mode                              : zlib
  209. Codec ID                                 : S_HDMV/PGS
  210. Codec ID/Info                            : Picture based subtitle format used on BDs/HD-DVDs
  211. Duration                                 : 1 h 53 min
  212. Bit rate                                 : 22.7 kb/s
  213. Count of elements                        : 2709
  214. Stream size                              : 18.5 MiB (0%)
  215. Language                                 : Chinese
  216. Default                                  : No
  217. Forced                                   : No
  218. Original source medium                   : Blu-ray

  219. Text #10
  220. ID                                       : 14
  221. ID in the original source medium         : 4773 (0x12A5)
  222. Format                                   : PGS
  223. Muxing mode                              : zlib
  224. Codec ID                                 : S_HDMV/PGS
  225. Codec ID/Info                            : Picture based subtitle format used on BDs/HD-DVDs
  226. Duration                                 : 1 h 53 min
  227. Bit rate                                 : 26.5 kb/s
  228. Count of elements                        : 2614
  229. Stream size                              : 21.6 MiB (0%)
  230. Language                                 : French
  231. Default                                  : No
  232. Forced                                   : No
  233. Original source medium                   : Blu-ray

  234. Text #11
  235. ID                                       : 15
  236. ID in the original source medium         : 4774 (0x12A6)
  237. Format                                   : PGS
  238. Muxing mode                              : zlib
  239. Codec ID                                 : S_HDMV/PGS
  240. Codec ID/Info                            : Picture based subtitle format used on BDs/HD-DVDs
  241. Duration                                 : 1 h 53 min
  242. Bit rate                                 : 22.6 kb/s
  243. Count of elements                        : 2724
  244. Stream size                              : 18.4 MiB (0%)
  245. Language                                 : Korean
  246. Default                                  : No
  247. Forced                                   : No
  248. Original source medium                   : Blu-ray

  249. Text #12
  250. ID                                       : 16
  251. ID in the original source medium         : 4775 (0x12A7)
  252. Format                                   : PGS
  253. Muxing mode                              : zlib
  254. Codec ID                                 : S_HDMV/PGS
  255. Codec ID/Info                            : Picture based subtitle format used on BDs/HD-DVDs
  256. Duration                                 : 1 h 53 min
  257. Bit rate                                 : 29.6 kb/s
  258. Count of elements                        : 2642
  259. Stream size                              : 24.1 MiB (0%)
  260. Language                                 : Portuguese
  261. Default                                  : No
  262. Forced                                   : No
  263. Original source medium                   : Blu-ray

  264. Text #13
  265. ID                                       : 17
  266. ID in the original source medium         : 4776 (0x12A8)
  267. Format                                   : PGS
  268. Muxing mode                              : zlib
  269. Codec ID                                 : S_HDMV/PGS
  270. Codec ID/Info                            : Picture based subtitle format used on BDs/HD-DVDs
  271. Duration                                 : 1 h 53 min
  272. Bit rate                                 : 27.4 kb/s
  273. Count of elements                        : 2586
  274. Stream size                              : 22.3 MiB (0%)
  275. Language                                 : Spanish
  276. Default                                  : No
  277. Forced                                   : No
  278. Original source medium                   : Blu-ray

  279. Text #14
  280. ID                                       : 18
  281. ID in the original source medium         : 4777 (0x12A9)
  282. Format                                   : PGS
  283. Muxing mode                              : zlib
  284. Codec ID                                 : S_HDMV/PGS
  285. Codec ID/Info                            : Picture based subtitle format used on BDs/HD-DVDs
  286. Duration                                 : 1 h 53 min
  287. Bit rate                                 : 30.0 kb/s
  288. Count of elements                        : 2717
  289. Stream size                              : 24.4 MiB (0%)
  290. Language                                 : Thai
  291. Default                                  : No
  292. Forced                                   : No
  293. Original source medium                   : Blu-ray

  294. Menu
  295. 00:00:00.000                             : en:Chapter 01
  296. 00:08:16.370                             : en:Chapter 02
  297. 00:12:23.367                             : en:Chapter 03
  298. 00:18:56.844                             : en:Chapter 04
  299. 00:24:30.218                             : en:Chapter 05
  300. 00:31:34.851                             : en:Chapter 06
  301. 00:36:14.463                             : en:Chapter 07
  302. 00:41:26.650                             : en:Chapter 08
  303. 00:48:04.923                             : en:Chapter 09
  304. 00:53:18.236                             : en:Chapter 10
  305. 00:59:13.007                             : en:Chapter 11
  306. 01:05:53.199                             : en:Chapter 12
  307. 01:12:02.943                             : en:Chapter 13
  308. 01:17:32.898                             : en:Chapter 14
  309. 01:25:00.386                             : en:Chapter 15
  310. 01:34:41.842                             : en:Chapter 16
复制代码








                                       
                                       

                                       
                                       
                                       




Uncharted.2022.2160p.BluRay.x265.10bit.SDR.DTS-HD.MA.TrueHD.7.1.Atmos-SWTYBLZ.torrent (42.66 KB, 下载次数: 0)
回复

使用道具 举报

您需要登录后才可以回帖 登录 | 立即注册

本版积分规则

QQ|Archiver|手机版|小黑屋|蓝光电影网

GMT+8, 2022-5-19 23:21 , Processed in 0.053503 second(s), 28 queries .

Powered by Discuz! X3.4

Copyright © 2001-2020, Tencent Cloud.

快速回复 返回顶部 返回列表