找回密码
 立即注册

QQ登录

只需一步,快速开始

查看: 38|回复: 0

[其他] 神秘海域 Uncharted.2022.2160p.BluRay.x264.8bit.SDR.DTS-HD.MA.TrueHD.7.1.Atmos-SWTYBLZ 37.35GB

[复制链接]

0

精华

0

好友

2

听众

新手上路

Rank: 2

蓝光币
5
发表于 2022-5-8 08:02:24 | 显示全部楼层 |阅读模式


◎译  名 神秘海域 / 秘境探险(港 / 台) / 神秘海域:德雷克船长的宝藏 / Uncharted: Drake's Fortune
◎片  名 Uncharted
◎年  代 2022
◎产  地 美国
◎类  别 动作 / 冒险
◎语  言 英语 / 西班牙语
◎上映日期 2022-03-14(中国大陆) / 2022-02-18(美国)
◎IMDb链接 https://www.imdb.com/title/tt1464335/
◎豆瓣评分 6.3/10 (65843人评价)
◎豆瓣链接 https://movie.douban.com/subject/3822687/
◎片  长 116分钟
◎导  演 鲁本·弗雷斯彻 Ruben Fleischer (id:1274906)
◎编  剧 雷夫·贾金斯 Rafe Judkins (id:1178355)
       阿特·马库姆 Art Marcum (id:1306770)
       马特·霍洛维 Matt Holloway (id:1286819)
◎演  员 汤姆·赫兰德 Tom Holland (id:1325351)
       马克·沃尔伯格 Mark Wahlberg (id:1035674)
       索菲娅·阿里 Sophia Ali (id:1391500)
       塔蒂·加布里埃 Tati Gabrielle (id:1378292)
       安东尼奥·班德拉斯 Antonio Banderas (id:1022582)
       史蒂芬·威丁顿 Steven Waddington (id:1319284)
       乔治娅·古德曼 Georgia Goodman (id:1392804)
       迪尔梅德·默塔 Diarmaid Murtagh (id:1332703)
       约瑟夫·巴德拉玛 Joseph Balderrama (id:1400929)
       阿拉娜·博登 Alana Boden (id:1385424)
       罗伯特?马瑟 Robert Maaser (id:1414390)
       埃斯金迪尔·特斯法 Eskindir Tesfay (id:1395237)
       曼纽尔·德·巴拉斯 Manuel de Blas (id:1001008)
       帕特丽夏·梅登 Patricia Meeden (id:1445766)
       诺兰·诺斯 Nolan North (id:1134542)
       吉米·哈特 Jimmy Hart (id:1303375)
       皮鲁·埃斯贝克 Pilou Asb?k (id:1032805)
       莎拉·佩特里克 Sarah Petrick (id:1446700)
       平吉·莫里 Pingi Moli  (id:1468362)
       蒂尔南·琼斯 Tiernan Jones  (id:1468363)
       鲁迪·潘科 Rudy Pankow  (id:1468364)
       乔纳森·法伊拉 Jonathan Failla  (id:1468365)
       安东尼·托马斯 Anthony Thomas  (id:1468366)
       彼得·锡顿-克拉克  Peter Seaton-Clark  (id:1468367)
       查尔斯·罗文 Charles Roven (id:1023082)
       阿维·阿拉德 Avi Arad (id:1462069)
       亚历克斯·加特纳 Alex Gartner (id:1423137)
       阿里·阿拉德 Ari Arad (id:1463185)
       鲁本·弗雷斯彻 Ruben Fleischer (id:1274906)
       阿萨德·齐齐尔巴什 Asad Qizilbash (id:1463186)
       丁正勋 Chung-hoon Chung (id:1076638)
       玛琳·斯图尔特 Marlene Stewart (id:1051194)
       贾斯汀·理查蒙德 Justin Richmond (id:1397058)
◎简  介

  足智多谋的内森·德雷克(汤姆·赫兰德 饰)和经验丰富的寻宝者维克多·苏利文(马克·沃尔伯格 饰)组成搭档,追寻费迪南·麦哲伦500年前遗失的宝藏。一开始,这似乎只是个简单的寻宝工作,但很快演变成了一场惊险刺激、横跨全球的竞赛。他们必须赶在冷酷无情的蒙卡达(安东尼奥·班德拉斯 饰)之前寻得宝藏。蒙卡达坚信他和他的家族才是宝藏的正当继承人。若内森和苏利文能破译线索,解开这世界上最古老的谜团,他们便能找到价值50亿美元的宝藏,甚至还可能找到内森失踪已久的哥哥……但首先,他们必须学会通力合作。
  1. Video
  2. ID                                       : 1
  3. Format                                   : AVC
  4. Format/Info                              : Advanced Video Codec
  5. Format profile                           : [email protected]
  6. Format settings                          : CABAC / 5 Ref Frames
  7. Format settings, CABAC                   : Yes
  8. Format settings, Reference frames        : 5 frames
  9. Codec ID                                 : V_MPEG4/ISO/AVC
  10. Duration                                 : 1 h 55 min
  11. Bit rate                                 : 37.1 Mb/s
  12. Width                                    : 3 840 pixels
  13. Height                                   : 1 608 pixels
  14. Display aspect ratio                     : 2.40:1
  15. Frame rate mode                          : Constant
  16. Frame rate                               : 23.976 (24000/1001/189150) FPS
  17. Color space                              : YUV
  18. Chroma subsampling                       : 4:2:0
  19. Bit depth                                : 8 bits
  20. Scan type                                : Progressive
  21. Bits/(Pixel*Frame)                       : 0.251
  22. Stream size                              : 30.0 GiB (81%)
  23. Writing library                          : x264 core 157 r2935 545de2f
  24. Encoding settings                        : cabac=1 / ref=5 / deblock=1:-1:-1 / analyse=0x3:0x113 / me=umh / subme=10 / psy=1 / psy_rd=1.00:0.15 / mixed_ref=1 / me_range=48 / chroma_me=1 / trellis=2 / 8x8dct=1 / cqm=0 / deadzone=21,11 / fast_pskip=1 / chroma_qp_offset=-3 / threads=48 / lookahead_threads=4 / sliced_threads=0 / nr=0 / decimate=0 / interlaced=0 / bluray_compat=0 / constrained_intra=0 / bframes=3 / b_pyramid=2 / b_adapt=2 / b_bias=0 / direct=3 / weightb=1 / open_gop=0 / weightp=2 / keyint=250 / keyint_min=23 / scenecut=40 / intra_refresh=0 / rc_lookahead=50 / rc=crf / mbtree=1 / crf=18.0 / qcomp=0.60 / qpmin=0 / qpmax=69 / qpstep=4 / ip_ratio=1.40 / aq=1:1.00
  25. Default                                  : Yes
  26. Forced                                   : No

  27. Audio #1
  28. ID                                       : 2
  29. ID in the original source medium         : 4352 (0x1100)
  30. Format                                   : MLP FBA 16-ch
  31. Format/Info                              : Meridian Lossless Packing FBA with 16-channel presentation
  32. Commercial name                          : Dolby TrueHD with Dolby Atmos
  33. Codec ID                                 : A_TRUEHD
  34. Duration                                 : 1 h 55 min
  35. Bit rate mode                            : Variable
  36. Bit rate                                 : 4 081 kb/s
  37. Maximum bit rate                         : 6 975 kb/s
  38. Channel(s)                               : 8 channels
  39. Channel layout                           : L R C LFE Ls Rs Lb Rb
  40. Sampling rate                            : 48.0 kHz
  41. Frame rate                               : 1 200.000 FPS (40 SPF)
  42. Bit depth                                : 24 bits
  43. Compression mode                         : Lossless
  44. Stream size                              : 3.30 GiB (9%)
  45. Title                                    : TrueHD 7.1 Atmos
  46. Language                                 : English
  47. Default                                  : Yes
  48. Forced                                   : No
  49. Original source medium                   : Blu-ray
  50. Number of dynamic objects                : 11
  51. Bed channel count                        : 1 channel
  52. Bed channel configuration                : LFE

  53. Audio #2
  54. ID                                       : 3
  55. Format                                   : DTS XLL
  56. Format/Info                              : Digital Theater Systems
  57. Commercial name                          : DTS-HD Master Audio
  58. Codec ID                                 : A_DTS
  59. Duration                                 : 1 h 55 min
  60. Bit rate mode                            : Variable
  61. Bit rate                                 : 3 921 kb/s
  62. Channel(s)                               : 8 channels
  63. Channel layout                           : C L R LFE Lb Rb Lss Rss
  64. Sampling rate                            : 48.0 kHz
  65. Frame rate                               : 93.750 FPS (512 SPF)
  66. Bit depth                                : 24 bits
  67. Compression mode                         : Lossless
  68. Stream size                              : 3.17 GiB (9%)
  69. Title                                    : DTS-HD MA 7.1
  70. Language                                 : English
  71. Default                                  : No
  72. Forced                                   : No

  73. Audio #3
  74. ID                                       : 4
  75. ID in the original source medium         : 4352 (0x1100)
  76. Format                                   : AC-3
  77. Format/Info                              : Audio Coding 3
  78. Commercial name                          : Dolby Digital
  79. Codec ID                                 : A_AC3
  80. Duration                                 : 1 h 55 min
  81. Bit rate mode                            : Constant
  82. Bit rate                                 : 640 kb/s
  83. Channel(s)                               : 6 channels
  84. Channel layout                           : L R C LFE Ls Rs
  85. Sampling rate                            : 48.0 kHz
  86. Frame rate                               : 31.250 FPS (1536 SPF)
  87. Compression mode                         : Lossy
  88. Stream size                              : 530 MiB (1%)
  89. Title                                    : DD 5.1
  90. Language                                 : English
  91. Service kind                             : Complete Main
  92. Default                                  : No
  93. Forced                                   : No
  94. Original source medium                   : Blu-ray

  95. Text #1
  96. ID                                       : 5
  97. Format                                   : UTF-8
  98. Codec ID                                 : S_TEXT/UTF8
  99. Codec ID/Info                            : UTF-8 Plain Text
  100. Duration                                 : 4 min 20 s
  101. Bit rate                                 : 17 b/s
  102. Count of elements                        : 23
  103. Stream size                              : 573 Bytes (0%)
  104. Title                                    : FORCED
  105. Language                                 : English
  106. Default                                  : No
  107. Forced                                   : Yes

  108. Text #2
  109. ID                                       : 6
  110. Format                                   : UTF-8
  111. Codec ID                                 : S_TEXT/UTF8
  112. Codec ID/Info                            : UTF-8 Plain Text
  113. Duration                                 : 1 h 47 min
  114. Bit rate                                 : 57 b/s
  115. Count of elements                        : 1409
  116. Stream size                              : 45.3 KiB (0%)
  117. Language                                 : English
  118. Default                                  : Yes
  119. Forced                                   : No

  120. Text #3
  121. ID                                       : 7
  122. Format                                   : UTF-8
  123. Codec ID                                 : S_TEXT/UTF8
  124. Codec ID/Info                            : UTF-8 Plain Text
  125. Duration                                 : 1 h 48 min
  126. Bit rate                                 : 63 b/s
  127. Count of elements                        : 1559
  128. Stream size                              : 50.0 KiB (0%)
  129. Title                                    : SDH
  130. Language                                 : English
  131. Default                                  : No
  132. Forced                                   : No

  133. Text #4
  134. ID                                       : 8
  135. ID in the original source medium         : 4768 (0x12A0)
  136. Format                                   : PGS
  137. Muxing mode                              : zlib
  138. Codec ID                                 : S_HDMV/PGS
  139. Codec ID/Info                            : Picture based subtitle format used on BDs/HD-DVDs
  140. Duration                                 : 1 h 48 min
  141. Bit rate                                 : 39.3 kb/s
  142. Count of elements                        : 3205
  143. Stream size                              : 30.4 MiB (0%)
  144. Language                                 : English
  145. Default                                  : No
  146. Forced                                   : No
  147. Original source medium                   : Blu-ray

  148. Text #5
  149. ID                                       : 9
  150. ID in the original source medium         : 4769 (0x12A1)
  151. Format                                   : PGS
  152. Muxing mode                              : zlib
  153. Codec ID                                 : S_HDMV/PGS
  154. Codec ID/Info                            : Picture based subtitle format used on BDs/HD-DVDs
  155. Duration                                 : 1 h 47 min
  156. Bit rate                                 : 33.4 kb/s
  157. Count of elements                        : 2670
  158. Stream size                              : 25.7 MiB (0%)
  159. Language                                 : English
  160. Default                                  : No
  161. Forced                                   : No
  162. Original source medium                   : Blu-ray

  163. Text #6
  164. ID                                       : 10
  165. ID in the original source medium         : 4769 (0x12A1)
  166. Format                                   : PGS
  167. Muxing mode                              : zlib
  168. Codec ID                                 : S_HDMV/PGS
  169. Codec ID/Info                            : Picture based subtitle format used on BDs/HD-DVDs
  170. Duration                                 : 4 min 20 s
  171. Bit rate                                 : 11.1 kb/s
  172. Count of elements                        : 46
  173. Stream size                              : 352 KiB (0%)
  174. Language                                 : English
  175. Default                                  : No
  176. Forced                                   : No
  177. Original source medium                   : Blu-ray

  178. Text #7
  179. ID                                       : 11
  180. ID in the original source medium         : 4770 (0x12A2)
  181. Format                                   : PGS
  182. Muxing mode                              : zlib
  183. Codec ID                                 : S_HDMV/PGS
  184. Codec ID/Info                            : Picture based subtitle format used on BDs/HD-DVDs
  185. Duration                                 : 1 h 53 min
  186. Bit rate                                 : 25.6 kb/s
  187. Count of elements                        : 2710
  188. Stream size                              : 20.8 MiB (0%)
  189. Language                                 : Chinese
  190. Default                                  : No
  191. Forced                                   : No
  192. Original source medium                   : Blu-ray

  193. Text #8
  194. ID                                       : 12
  195. ID in the original source medium         : 4771 (0x12A3)
  196. Format                                   : PGS
  197. Muxing mode                              : zlib
  198. Codec ID                                 : S_HDMV/PGS
  199. Codec ID/Info                            : Picture based subtitle format used on BDs/HD-DVDs
  200. Duration                                 : 1 h 53 min
  201. Bit rate                                 : 25.3 kb/s
  202. Count of elements                        : 2708
  203. Stream size                              : 20.6 MiB (0%)
  204. Language                                 : Chinese
  205. Default                                  : No
  206. Forced                                   : No
  207. Original source medium                   : Blu-ray

  208. Text #9
  209. ID                                       : 13
  210. ID in the original source medium         : 4772 (0x12A4)
  211. Format                                   : PGS
  212. Muxing mode                              : zlib
  213. Codec ID                                 : S_HDMV/PGS
  214. Codec ID/Info                            : Picture based subtitle format used on BDs/HD-DVDs
  215. Duration                                 : 1 h 53 min
  216. Bit rate                                 : 22.7 kb/s
  217. Count of elements                        : 2709
  218. Stream size                              : 18.5 MiB (0%)
  219. Language                                 : Chinese
  220. Default                                  : No
  221. Forced                                   : No
  222. Original source medium                   : Blu-ray

  223. Text #10
  224. ID                                       : 14
  225. ID in the original source medium         : 4773 (0x12A5)
  226. Format                                   : PGS
  227. Muxing mode                              : zlib
  228. Codec ID                                 : S_HDMV/PGS
  229. Codec ID/Info                            : Picture based subtitle format used on BDs/HD-DVDs
  230. Duration                                 : 1 h 53 min
  231. Bit rate                                 : 26.5 kb/s
  232. Count of elements                        : 2614
  233. Stream size                              : 21.6 MiB (0%)
  234. Language                                 : French
  235. Default                                  : No
  236. Forced                                   : No
  237. Original source medium                   : Blu-ray

  238. Text #11
  239. ID                                       : 15
  240. ID in the original source medium         : 4774 (0x12A6)
  241. Format                                   : PGS
  242. Muxing mode                              : zlib
  243. Codec ID                                 : S_HDMV/PGS
  244. Codec ID/Info                            : Picture based subtitle format used on BDs/HD-DVDs
  245. Duration                                 : 1 h 53 min
  246. Bit rate                                 : 22.6 kb/s
  247. Count of elements                        : 2724
  248. Stream size                              : 18.4 MiB (0%)
  249. Language                                 : Korean
  250. Default                                  : No
  251. Forced                                   : No
  252. Original source medium                   : Blu-ray

  253. Text #12
  254. ID                                       : 16
  255. ID in the original source medium         : 4775 (0x12A7)
  256. Format                                   : PGS
  257. Muxing mode                              : zlib
  258. Codec ID                                 : S_HDMV/PGS
  259. Codec ID/Info                            : Picture based subtitle format used on BDs/HD-DVDs
  260. Duration                                 : 1 h 53 min
  261. Bit rate                                 : 29.6 kb/s
  262. Count of elements                        : 2642
  263. Stream size                              : 24.1 MiB (0%)
  264. Language                                 : Portuguese
  265. Default                                  : No
  266. Forced                                   : No
  267. Original source medium                   : Blu-ray

  268. Text #13
  269. ID                                       : 17
  270. ID in the original source medium         : 4776 (0x12A8)
  271. Format                                   : PGS
  272. Muxing mode                              : zlib
  273. Codec ID                                 : S_HDMV/PGS
  274. Codec ID/Info                            : Picture based subtitle format used on BDs/HD-DVDs
  275. Duration                                 : 1 h 53 min
  276. Bit rate                                 : 27.4 kb/s
  277. Count of elements                        : 2586
  278. Stream size                              : 22.3 MiB (0%)
  279. Language                                 : Spanish
  280. Default                                  : No
  281. Forced                                   : No
  282. Original source medium                   : Blu-ray

  283. Text #14
  284. ID                                       : 18
  285. ID in the original source medium         : 4777 (0x12A9)
  286. Format                                   : PGS
  287. Muxing mode                              : zlib
  288. Codec ID                                 : S_HDMV/PGS
  289. Codec ID/Info                            : Picture based subtitle format used on BDs/HD-DVDs
  290. Duration                                 : 1 h 53 min
  291. Bit rate                                 : 30.0 kb/s
  292. Count of elements                        : 2717
  293. Stream size                              : 24.4 MiB (0%)
  294. Language                                 : Thai
  295. Default                                  : No
  296. Forced                                   : No
  297. Original source medium                   : Blu-ray

  298. Menu
  299. 00:00:00.000                             : en:Chapter 01
  300. 00:08:16.370                             : en:Chapter 02
  301. 00:12:23.367                             : en:Chapter 03
  302. 00:18:56.844                             : en:Chapter 04
  303. 00:24:30.218                             : en:Chapter 05
  304. 00:31:34.851                             : en:Chapter 06
  305. 00:36:14.463                             : en:Chapter 07
  306. 00:41:26.650                             : en:Chapter 08
  307. 00:48:04.923                             : en:Chapter 09
  308. 00:53:18.236                             : en:Chapter 10
  309. 00:59:13.007                             : en:Chapter 11
  310. 01:05:53.199                             : en:Chapter 12
  311. 01:12:02.943                             : en:Chapter 13
  312. 01:17:32.898                             : en:Chapter 14
  313. 01:25:00.386                             : en:Chapter 15
  314. 01:34:41.842                             : en:Chapter 16
复制代码












                                       
                                       

                                       
                                       
                                       




Uncharted.2022.2160p.BluRay.x264.8bit.SDR.DTS-HD.MA.TrueHD.7.1.Atmos-SWTYBLZ.torrent (47.42 KB, 下载次数: 2)
回复

使用道具 举报

您需要登录后才可以回帖 登录 | 立即注册

本版积分规则

QQ|Archiver|手机版|小黑屋|蓝光电影网

GMT+8, 2022-5-19 23:26 , Processed in 0.053520 second(s), 28 queries .

Powered by Discuz! X3.4

Copyright © 2001-2020, Tencent Cloud.

快速回复 返回顶部 返回列表