找回密码
 立即注册

QQ登录

只需一步,快速开始

查看: 41|回复: 0

[UHD.HEVC] 神秘海域 Uncharted.2022.2160p.BluRay.REMUX.HEVC.DTS-HD.MA.TrueHD.7.1.Atmos-FGT 54.72GB

[复制链接]

0

精华

0

好友

2

听众

新手上路

Rank: 2

蓝光币
5
发表于 2022-5-8 08:00:55 | 显示全部楼层 |阅读模式


◎译  名 神秘海域 / 秘境探险(港 / 台) / 神秘海域:德雷克船长的宝藏 / Uncharted: Drake's Fortune
◎片  名 Uncharted
◎年  代 2022
◎产  地 美国
◎类  别 动作 / 冒险
◎语  言 英语 / 西班牙语
◎上映日期 2022-03-14(中国大陆) / 2022-02-18(美国)
◎IMDb链接 https://www.imdb.com/title/tt1464335/
◎豆瓣评分 6.3/10 (65843人评价)
◎豆瓣链接 https://movie.douban.com/subject/3822687/
◎片  长 116分钟
◎导  演 鲁本·弗雷斯彻 Ruben Fleischer (id:1274906)
◎编  剧 雷夫·贾金斯 Rafe Judkins (id:1178355)
       阿特·马库姆 Art Marcum (id:1306770)
       马特·霍洛维 Matt Holloway (id:1286819)
◎演  员 汤姆·赫兰德 Tom Holland (id:1325351)
       马克·沃尔伯格 Mark Wahlberg (id:1035674)
       索菲娅·阿里 Sophia Ali (id:1391500)
       塔蒂·加布里埃 Tati Gabrielle (id:1378292)
       安东尼奥·班德拉斯 Antonio Banderas (id:1022582)
       史蒂芬·威丁顿 Steven Waddington (id:1319284)
       乔治娅·古德曼 Georgia Goodman (id:1392804)
       迪尔梅德·默塔 Diarmaid Murtagh (id:1332703)
       约瑟夫·巴德拉玛 Joseph Balderrama (id:1400929)
       阿拉娜·博登 Alana Boden (id:1385424)
       罗伯特?马瑟 Robert Maaser (id:1414390)
       埃斯金迪尔·特斯法 Eskindir Tesfay (id:1395237)
       曼纽尔·德·巴拉斯 Manuel de Blas (id:1001008)
       帕特丽夏·梅登 Patricia Meeden (id:1445766)
       诺兰·诺斯 Nolan North (id:1134542)
       吉米·哈特 Jimmy Hart (id:1303375)
       皮鲁·埃斯贝克 Pilou Asb?k (id:1032805)
       莎拉·佩特里克 Sarah Petrick (id:1446700)
       平吉·莫里 Pingi Moli  (id:1468362)
       蒂尔南·琼斯 Tiernan Jones  (id:1468363)
       鲁迪·潘科 Rudy Pankow  (id:1468364)
       乔纳森·法伊拉 Jonathan Failla  (id:1468365)
       安东尼·托马斯 Anthony Thomas  (id:1468366)
       彼得·锡顿-克拉克  Peter Seaton-Clark  (id:1468367)
       查尔斯·罗文 Charles Roven (id:1023082)
       阿维·阿拉德 Avi Arad (id:1462069)
       亚历克斯·加特纳 Alex Gartner (id:1423137)
       阿里·阿拉德 Ari Arad (id:1463185)
       鲁本·弗雷斯彻 Ruben Fleischer (id:1274906)
       阿萨德·齐齐尔巴什 Asad Qizilbash (id:1463186)
       丁正勋 Chung-hoon Chung (id:1076638)
       玛琳·斯图尔特 Marlene Stewart (id:1051194)
       贾斯汀·理查蒙德 Justin Richmond (id:1397058)
◎简  介

  足智多谋的内森·德雷克(汤姆·赫兰德 饰)和经验丰富的寻宝者维克多·苏利文(马克·沃尔伯格 饰)组成搭档,追寻费迪南·麦哲伦500年前遗失的宝藏。一开始,这似乎只是个简单的寻宝工作,但很快演变成了一场惊险刺激、横跨全球的竞赛。他们必须赶在冷酷无情的蒙卡达(安东尼奥·班德拉斯 饰)之前寻得宝藏。蒙卡达坚信他和他的家族才是宝藏的正当继承人。若内森和苏利文能破译线索,解开这世界上最古老的谜团,他们便能找到价值50亿美元的宝藏,甚至还可能找到内森失踪已久的哥哥……但首先,他们必须学会通力合作。
  1. Video
  2. ID                                       : 1
  3. ID in the original source medium         : 4113 (0x1011)
  4. Format                                   : HEVC
  5. Format/Info                              : High Efficiency Video Coding
  6. Format profile                           : Main [email protected]@High
  7. HDR format                               : Dolby Vision, Version 1.0, dvhe.07.06, BL+EL+RPU, Blu-ray compatible / SMPTE ST 2086, HDR10 compatible
  8. Codec ID                                 : V_MPEGH/ISO/HEVC
  9. Duration                                 : 1 h 55 min
  10. Bit rate                                 : 52.0 Mb/s
  11. Width                                    : 3 840 pixels
  12. Height                                   : 2 160 pixels
  13. Display aspect ratio                     : 16:9
  14. Frame rate mode                          : Constant
  15. Frame rate                               : 23.976 (24000/1001/189150) FPS
  16. Color space                              : YUV
  17. Chroma subsampling                       : 4:2:0 (Type 2)
  18. Bit depth                                : 10 bits
  19. Bits/(Pixel*Frame)                       : 0.261
  20. Stream size                              : 42.1 GiB (77%)
  21. Language                                 : English
  22. Default                                  : No
  23. Forced                                   : No
  24. Color range                              : Limited
  25. Color primaries                          : BT.2020
  26. Transfer characteristics                 : PQ
  27. Matrix coefficients                      : BT.2020 non-constant
  28. Mastering display color primaries        : Display P3
  29. Mastering display luminance              : min: 0.0001 cd/m2, max: 1000 cd/m2
  30. Maximum Content Light Level              : 1022 cd/m2
  31. Maximum Frame-Average Light Level        : 293 cd/m2
  32. Original source medium                   : Blu-ray

  33. Audio #1
  34. ID                                       : 2
  35. ID in the original source medium         : 4352 (0x1100)
  36. Format                                   : MLP FBA 16-ch
  37. Format/Info                              : Meridian Lossless Packing FBA with 16-channel presentation
  38. Commercial name                          : Dolby TrueHD with Dolby Atmos
  39. Codec ID                                 : A_TRUEHD
  40. Duration                                 : 1 h 55 min
  41. Bit rate mode                            : Variable
  42. Bit rate                                 : 4 081 kb/s
  43. Maximum bit rate                         : 6 975 kb/s
  44. Channel(s)                               : 8 channels
  45. Channel layout                           : L R C LFE Ls Rs Lb Rb
  46. Sampling rate                            : 48.0 kHz
  47. Frame rate                               : 1 200.000 FPS (40 SPF)
  48. Bit depth                                : 24 bits
  49. Compression mode                         : Lossless
  50. Stream size                              : 3.30 GiB (6%)
  51. Title                                    : TrueHD 7.1 Atmos
  52. Language                                 : English
  53. Default                                  : Yes
  54. Forced                                   : No
  55. Original source medium                   : Blu-ray
  56. Number of dynamic objects                : 11
  57. Bed channel count                        : 1 channel
  58. Bed channel configuration                : LFE

  59. Audio #2
  60. ID                                       : 3
  61. Format                                   : DTS XLL
  62. Format/Info                              : Digital Theater Systems
  63. Commercial name                          : DTS-HD Master Audio
  64. Codec ID                                 : A_DTS
  65. Duration                                 : 1 h 55 min
  66. Bit rate mode                            : Variable
  67. Bit rate                                 : 3 921 kb/s
  68. Channel(s)                               : 8 channels
  69. Channel layout                           : C L R LFE Lb Rb Lss Rss
  70. Sampling rate                            : 48.0 kHz
  71. Frame rate                               : 93.750 FPS (512 SPF)
  72. Bit depth                                : 24 bits
  73. Compression mode                         : Lossless
  74. Stream size                              : 3.17 GiB (6%)
  75. Title                                    : DTS-HD MA 7.1
  76. Language                                 : English
  77. Default                                  : No
  78. Forced                                   : No

  79. Audio #3
  80. ID                                       : 4
  81. ID in the original source medium         : 4352 (0x1100)
  82. Format                                   : AC-3
  83. Format/Info                              : Audio Coding 3
  84. Commercial name                          : Dolby Digital
  85. Codec ID                                 : A_AC3
  86. Duration                                 : 1 h 55 min
  87. Bit rate mode                            : Constant
  88. Bit rate                                 : 640 kb/s
  89. Channel(s)                               : 6 channels
  90. Channel layout                           : L R C LFE Ls Rs
  91. Sampling rate                            : 48.0 kHz
  92. Frame rate                               : 31.250 FPS (1536 SPF)
  93. Compression mode                         : Lossy
  94. Stream size                              : 530 MiB (1%)
  95. Title                                    : DD 5.1
  96. Language                                 : English
  97. Service kind                             : Complete Main
  98. Default                                  : No
  99. Forced                                   : No
  100. Original source medium                   : Blu-ray

  101. Audio #4
  102. ID                                       : 5
  103. ID in the original source medium         : 4353 (0x1101)
  104. Format                                   : AC-3
  105. Format/Info                              : Audio Coding 3
  106. Commercial name                          : Dolby Digital
  107. Codec ID                                 : A_AC3
  108. Duration                                 : 1 h 55 min
  109. Bit rate mode                            : Constant
  110. Bit rate                                 : 640 kb/s
  111. Channel(s)                               : 6 channels
  112. Channel layout                           : L R C LFE Ls Rs
  113. Sampling rate                            : 48.0 kHz
  114. Frame rate                               : 31.250 FPS (1536 SPF)
  115. Compression mode                         : Lossy
  116. Stream size                              : 530 MiB (1%)
  117. Title                                    : DD 5.1
  118. Language                                 : English
  119. Service kind                             : Complete Main
  120. Default                                  : No
  121. Forced                                   : No
  122. Original source medium                   : Blu-ray

  123. Audio #5
  124. ID                                       : 6
  125. ID in the original source medium         : 4354 (0x1102)
  126. Format                                   : DTS XLL
  127. Format/Info                              : Digital Theater Systems
  128. Commercial name                          : DTS-HD Master Audio
  129. Codec ID                                 : A_DTS
  130. Duration                                 : 1 h 55 min
  131. Bit rate mode                            : Variable
  132. Bit rate                                 : 2 209 kb/s
  133. Channel(s)                               : 6 channels
  134. Channel layout                           : C L R Ls Rs LFE
  135. Sampling rate                            : 48.0 kHz
  136. Frame rate                               : 93.750 FPS (512 SPF)
  137. Bit depth                                : 16 bits
  138. Compression mode                         : Lossless
  139. Stream size                              : 1.79 GiB (3%)
  140. Title                                    : DTS-HD MA 5.1
  141. Language                                 : French
  142. Default                                  : No
  143. Forced                                   : No
  144. Original source medium                   : Blu-ray

  145. Audio #6
  146. ID                                       : 7
  147. ID in the original source medium         : 4355 (0x1103)
  148. Format                                   : DTS XLL
  149. Format/Info                              : Digital Theater Systems
  150. Commercial name                          : DTS-HD Master Audio
  151. Codec ID                                 : A_DTS
  152. Duration                                 : 1 h 55 min
  153. Bit rate mode                            : Variable
  154. Bit rate                                 : 2 222 kb/s
  155. Channel(s)                               : 6 channels
  156. Channel layout                           : C L R Ls Rs LFE
  157. Sampling rate                            : 48.0 kHz
  158. Frame rate                               : 93.750 FPS (512 SPF)
  159. Bit depth                                : 16 bits
  160. Compression mode                         : Lossless
  161. Stream size                              : 1.80 GiB (3%)
  162. Title                                    : DTS-HD MA 5.1
  163. Language                                 : Portuguese
  164. Default                                  : No
  165. Forced                                   : No
  166. Original source medium                   : Blu-ray

  167. Audio #7
  168. ID                                       : 8
  169. ID in the original source medium         : 4356 (0x1104)
  170. Format                                   : AC-3
  171. Format/Info                              : Audio Coding 3
  172. Commercial name                          : Dolby Digital
  173. Codec ID                                 : A_AC3
  174. Duration                                 : 1 h 55 min
  175. Bit rate mode                            : Constant
  176. Bit rate                                 : 640 kb/s
  177. Channel(s)                               : 6 channels
  178. Channel layout                           : L R C LFE Ls Rs
  179. Sampling rate                            : 48.0 kHz
  180. Frame rate                               : 31.250 FPS (1536 SPF)
  181. Compression mode                         : Lossy
  182. Stream size                              : 530 MiB (1%)
  183. Title                                    : DD 5.1
  184. Language                                 : Spanish
  185. Service kind                             : Complete Main
  186. Default                                  : No
  187. Forced                                   : No
  188. Original source medium                   : Blu-ray

  189. Audio #8
  190. ID                                       : 9
  191. ID in the original source medium         : 4357 (0x1105)
  192. Format                                   : AC-3
  193. Format/Info                              : Audio Coding 3
  194. Commercial name                          : Dolby Digital
  195. Codec ID                                 : A_AC3
  196. Duration                                 : 1 h 55 min
  197. Bit rate mode                            : Constant
  198. Bit rate                                 : 640 kb/s
  199. Channel(s)                               : 6 channels
  200. Channel layout                           : L R C LFE Ls Rs
  201. Sampling rate                            : 48.0 kHz
  202. Frame rate                               : 31.250 FPS (1536 SPF)
  203. Compression mode                         : Lossy
  204. Stream size                              : 530 MiB (1%)
  205. Title                                    : DD 5.1
  206. Language                                 : Thai
  207. Service kind                             : Complete Main
  208. Default                                  : No
  209. Forced                                   : No
  210. Original source medium                   : Blu-ray

  211. Audio #9
  212. ID                                       : 10
  213. ID in the original source medium         : 4358 (0x1106)
  214. Format                                   : AC-3
  215. Format/Info                              : Audio Coding 3
  216. Commercial name                          : Dolby Digital
  217. Format settings                          : Dolby Surround
  218. Codec ID                                 : A_AC3
  219. Duration                                 : 1 h 55 min
  220. Bit rate mode                            : Constant
  221. Bit rate                                 : 192 kb/s
  222. Channel(s)                               : 2 channels
  223. Channel layout                           : L R
  224. Sampling rate                            : 48.0 kHz
  225. Frame rate                               : 31.250 FPS (1536 SPF)
  226. Compression mode                         : Lossy
  227. Stream size                              : 159 MiB (0%)
  228. Title                                    : DD 2.0
  229. Language                                 : English
  230. Service kind                             : Complete Main
  231. Default                                  : No
  232. Forced                                   : No
  233. Original source medium                   : Blu-ray

  234. Text #1
  235. ID                                       : 11
  236. Format                                   : UTF-8
  237. Codec ID                                 : S_TEXT/UTF8
  238. Codec ID/Info                            : UTF-8 Plain Text
  239. Duration                                 : 4 min 20 s
  240. Bit rate                                 : 17 b/s
  241. Count of elements                        : 23
  242. Stream size                              : 573 Bytes (0%)
  243. Title                                    : FORCED
  244. Language                                 : English
  245. Default                                  : No
  246. Forced                                   : Yes

  247. Text #2
  248. ID                                       : 12
  249. Format                                   : UTF-8
  250. Codec ID                                 : S_TEXT/UTF8
  251. Codec ID/Info                            : UTF-8 Plain Text
  252. Duration                                 : 1 h 47 min
  253. Bit rate                                 : 57 b/s
  254. Count of elements                        : 1409
  255. Stream size                              : 45.3 KiB (0%)
  256. Language                                 : English
  257. Default                                  : Yes
  258. Forced                                   : No

  259. Text #3
  260. ID                                       : 13
  261. Format                                   : UTF-8
  262. Codec ID                                 : S_TEXT/UTF8
  263. Codec ID/Info                            : UTF-8 Plain Text
  264. Duration                                 : 1 h 48 min
  265. Bit rate                                 : 63 b/s
  266. Count of elements                        : 1559
  267. Stream size                              : 50.0 KiB (0%)
  268. Title                                    : SDH
  269. Language                                 : English
  270. Default                                  : No
  271. Forced                                   : No

  272. Text #4
  273. ID                                       : 14
  274. ID in the original source medium         : 4768 (0x12A0)
  275. Format                                   : PGS
  276. Muxing mode                              : zlib
  277. Codec ID                                 : S_HDMV/PGS
  278. Codec ID/Info                            : Picture based subtitle format used on BDs/HD-DVDs
  279. Duration                                 : 1 h 48 min
  280. Bit rate                                 : 39.3 kb/s
  281. Count of elements                        : 3205
  282. Stream size                              : 30.4 MiB (0%)
  283. Language                                 : English
  284. Default                                  : No
  285. Forced                                   : No
  286. Original source medium                   : Blu-ray

  287. Text #5
  288. ID                                       : 15
  289. ID in the original source medium         : 4769 (0x12A1)
  290. Format                                   : PGS
  291. Muxing mode                              : zlib
  292. Codec ID                                 : S_HDMV/PGS
  293. Codec ID/Info                            : Picture based subtitle format used on BDs/HD-DVDs
  294. Duration                                 : 1 h 47 min
  295. Bit rate                                 : 33.4 kb/s
  296. Count of elements                        : 2670
  297. Stream size                              : 25.7 MiB (0%)
  298. Language                                 : English
  299. Default                                  : No
  300. Forced                                   : No
  301. Original source medium                   : Blu-ray

  302. Text #6
  303. ID                                       : 16
  304. ID in the original source medium         : 4769 (0x12A1)
  305. Format                                   : PGS
  306. Muxing mode                              : zlib
  307. Codec ID                                 : S_HDMV/PGS
  308. Codec ID/Info                            : Picture based subtitle format used on BDs/HD-DVDs
  309. Duration                                 : 4 min 20 s
  310. Bit rate                                 : 11.1 kb/s
  311. Count of elements                        : 46
  312. Stream size                              : 352 KiB (0%)
  313. Language                                 : English
  314. Default                                  : No
  315. Forced                                   : No
  316. Original source medium                   : Blu-ray

  317. Text #7
  318. ID                                       : 17
  319. ID in the original source medium         : 4770 (0x12A2)
  320. Format                                   : PGS
  321. Muxing mode                              : zlib
  322. Codec ID                                 : S_HDMV/PGS
  323. Codec ID/Info                            : Picture based subtitle format used on BDs/HD-DVDs
  324. Duration                                 : 1 h 53 min
  325. Bit rate                                 : 25.6 kb/s
  326. Count of elements                        : 2710
  327. Stream size                              : 20.8 MiB (0%)
  328. Language                                 : Chinese
  329. Default                                  : No
  330. Forced                                   : No
  331. Original source medium                   : Blu-ray

  332. Text #8
  333. ID                                       : 18
  334. ID in the original source medium         : 4771 (0x12A3)
  335. Format                                   : PGS
  336. Muxing mode                              : zlib
  337. Codec ID                                 : S_HDMV/PGS
  338. Codec ID/Info                            : Picture based subtitle format used on BDs/HD-DVDs
  339. Duration                                 : 1 h 53 min
  340. Bit rate                                 : 25.3 kb/s
  341. Count of elements                        : 2708
  342. Stream size                              : 20.6 MiB (0%)
  343. Language                                 : Chinese
  344. Default                                  : No
  345. Forced                                   : No
  346. Original source medium                   : Blu-ray

  347. Text #9
  348. ID                                       : 19
  349. ID in the original source medium         : 4772 (0x12A4)
  350. Format                                   : PGS
  351. Muxing mode                              : zlib
  352. Codec ID                                 : S_HDMV/PGS
  353. Codec ID/Info                            : Picture based subtitle format used on BDs/HD-DVDs
  354. Duration                                 : 1 h 53 min
  355. Bit rate                                 : 22.7 kb/s
  356. Count of elements                        : 2709
  357. Stream size                              : 18.5 MiB (0%)
  358. Language                                 : Chinese
  359. Default                                  : No
  360. Forced                                   : No
  361. Original source medium                   : Blu-ray

  362. Text #10
  363. ID                                       : 20
  364. ID in the original source medium         : 4773 (0x12A5)
  365. Format                                   : PGS
  366. Muxing mode                              : zlib
  367. Codec ID                                 : S_HDMV/PGS
  368. Codec ID/Info                            : Picture based subtitle format used on BDs/HD-DVDs
  369. Duration                                 : 1 h 53 min
  370. Bit rate                                 : 26.5 kb/s
  371. Count of elements                        : 2614
  372. Stream size                              : 21.6 MiB (0%)
  373. Language                                 : French
  374. Default                                  : No
  375. Forced                                   : No
  376. Original source medium                   : Blu-ray

  377. Text #11
  378. ID                                       : 21
  379. ID in the original source medium         : 4774 (0x12A6)
  380. Format                                   : PGS
  381. Muxing mode                              : zlib
  382. Codec ID                                 : S_HDMV/PGS
  383. Codec ID/Info                            : Picture based subtitle format used on BDs/HD-DVDs
  384. Duration                                 : 1 h 53 min
  385. Bit rate                                 : 22.6 kb/s
  386. Count of elements                        : 2724
  387. Stream size                              : 18.4 MiB (0%)
  388. Language                                 : Korean
  389. Default                                  : No
  390. Forced                                   : No
  391. Original source medium                   : Blu-ray

  392. Text #12
  393. ID                                       : 22
  394. ID in the original source medium         : 4775 (0x12A7)
  395. Format                                   : PGS
  396. Muxing mode                              : zlib
  397. Codec ID                                 : S_HDMV/PGS
  398. Codec ID/Info                            : Picture based subtitle format used on BDs/HD-DVDs
  399. Duration                                 : 1 h 53 min
  400. Bit rate                                 : 29.6 kb/s
  401. Count of elements                        : 2642
  402. Stream size                              : 24.1 MiB (0%)
  403. Language                                 : Portuguese
  404. Default                                  : No
  405. Forced                                   : No
  406. Original source medium                   : Blu-ray

  407. Text #13
  408. ID                                       : 23
  409. ID in the original source medium         : 4776 (0x12A8)
  410. Format                                   : PGS
  411. Muxing mode                              : zlib
  412. Codec ID                                 : S_HDMV/PGS
  413. Codec ID/Info                            : Picture based subtitle format used on BDs/HD-DVDs
  414. Duration                                 : 1 h 53 min
  415. Bit rate                                 : 27.4 kb/s
  416. Count of elements                        : 2586
  417. Stream size                              : 22.3 MiB (0%)
  418. Language                                 : Spanish
  419. Default                                  : No
  420. Forced                                   : No
  421. Original source medium                   : Blu-ray

  422. Text #14
  423. ID                                       : 24
  424. ID in the original source medium         : 4777 (0x12A9)
  425. Format                                   : PGS
  426. Muxing mode                              : zlib
  427. Codec ID                                 : S_HDMV/PGS
  428. Codec ID/Info                            : Picture based subtitle format used on BDs/HD-DVDs
  429. Duration                                 : 1 h 53 min
  430. Bit rate                                 : 30.0 kb/s
  431. Count of elements                        : 2717
  432. Stream size                              : 24.4 MiB (0%)
  433. Language                                 : Thai
  434. Default                                  : No
  435. Forced                                   : No
  436. Original source medium                   : Blu-ray

  437. Text #15
  438. ID                                       : 25
  439. ID in the original source medium         : 4779 (0x12AB)
  440. Format                                   : PGS
  441. Muxing mode                              : zlib
  442. Codec ID                                 : S_HDMV/PGS
  443. Codec ID/Info                            : Picture based subtitle format used on BDs/HD-DVDs
  444. Duration                                 : 1 h 51 min
  445. Bit rate                                 : 70.3 kb/s
  446. Count of elements                        : 3877
  447. Stream size                              : 55.9 MiB (0%)
  448. Title                                    : COMMENTARY
  449. Language                                 : English
  450. Default                                  : No
  451. Forced                                   : No
  452. Original source medium                   : Blu-ray

  453. Text #16
  454. ID                                       : 26
  455. ID in the original source medium         : 4780 (0x12AC)
  456. Format                                   : PGS
  457. Muxing mode                              : zlib
  458. Codec ID                                 : S_HDMV/PGS
  459. Codec ID/Info                            : Picture based subtitle format used on BDs/HD-DVDs
  460. Duration                                 : 1 h 51 min
  461. Bit rate                                 : 56.8 kb/s
  462. Count of elements                        : 3895
  463. Stream size                              : 45.1 MiB (0%)
  464. Title                                    : COMMENTARY
  465. Language                                 : Chinese
  466. Default                                  : No
  467. Forced                                   : No
  468. Original source medium                   : Blu-ray

  469. Text #17
  470. ID                                       : 27
  471. ID in the original source medium         : 4781 (0x12AD)
  472. Format                                   : PGS
  473. Muxing mode                              : zlib
  474. Codec ID                                 : S_HDMV/PGS
  475. Codec ID/Info                            : Picture based subtitle format used on BDs/HD-DVDs
  476. Duration                                 : 1 h 51 min
  477. Bit rate                                 : 47.2 kb/s
  478. Count of elements                        : 3911
  479. Stream size                              : 37.5 MiB (0%)
  480. Title                                    : COMMENTARY
  481. Language                                 : Korean
  482. Default                                  : No
  483. Forced                                   : No
  484. Original source medium                   : Blu-ray

  485. Text #18
  486. ID                                       : 28
  487. ID in the original source medium         : 4782 (0x12AE)
  488. Format                                   : PGS
  489. Muxing mode                              : zlib
  490. Codec ID                                 : S_HDMV/PGS
  491. Codec ID/Info                            : Picture based subtitle format used on BDs/HD-DVDs
  492. Duration                                 : 1 h 51 min
  493. Bit rate                                 : 60.7 kb/s
  494. Count of elements                        : 3701
  495. Stream size                              : 48.2 MiB (0%)
  496. Title                                    : COMMENTARY
  497. Language                                 : Portuguese
  498. Default                                  : No
  499. Forced                                   : No
  500. Original source medium                   : Blu-ray

  501. Text #19
  502. ID                                       : 29
  503. ID in the original source medium         : 4783 (0x12AF)
  504. Format                                   : PGS
  505. Muxing mode                              : zlib
  506. Codec ID                                 : S_HDMV/PGS
  507. Codec ID/Info                            : Picture based subtitle format used on BDs/HD-DVDs
  508. Duration                                 : 1 h 51 min
  509. Bit rate                                 : 61.0 kb/s
  510. Count of elements                        : 3535
  511. Stream size                              : 48.5 MiB (0%)
  512. Title                                    : COMMENTARY
  513. Language                                 : Spanish
  514. Default                                  : No
  515. Forced                                   : No
  516. Original source medium                   : Blu-ray

  517. Text #20
  518. ID                                       : 30
  519. ID in the original source medium         : 4784 (0x12B0)
  520. Format                                   : PGS
  521. Muxing mode                              : zlib
  522. Codec ID                                 : S_HDMV/PGS
  523. Codec ID/Info                            : Picture based subtitle format used on BDs/HD-DVDs
  524. Duration                                 : 1 h 51 min
  525. Bit rate                                 : 66.0 kb/s
  526. Count of elements                        : 3911
  527. Stream size                              : 52.5 MiB (0%)
  528. Title                                    : COMMENTARY
  529. Language                                 : Thai
  530. Default                                  : No
  531. Forced                                   : No
  532. Original source medium                   : Blu-ray

  533. Menu
  534. 00:00:00.000                             : en:Chapter 01
  535. 00:08:16.370                             : en:Chapter 02
  536. 00:12:23.367                             : en:Chapter 03
  537. 00:18:56.844                             : en:Chapter 04
  538. 00:24:30.218                             : en:Chapter 05
  539. 00:31:34.851                             : en:Chapter 06
  540. 00:36:14.463                             : en:Chapter 07
  541. 00:41:26.650                             : en:Chapter 08
  542. 00:48:04.923                             : en:Chapter 09
  543. 00:53:18.236                             : en:Chapter 10
  544. 00:59:13.007                             : en:Chapter 11
  545. 01:05:53.199                             : en:Chapter 12
  546. 01:12:02.943                             : en:Chapter 13
  547. 01:17:32.898                             : en:Chapter 14
  548. 01:25:00.386                             : en:Chapter 15
  549. 01:34:41.842                             : en:Chapter 16
复制代码




                                       
                                       

                                       
                                       
                                       




Uncharted.2022.2160p.BluRay.REMUX.HEVC.DTS-HD.MA.TrueHD.7.1.Atmos-FGT.torrent (69.05 KB, 下载次数: 3)
回复

使用道具 举报

您需要登录后才可以回帖 登录 | 立即注册

本版积分规则

QQ|Archiver|手机版|小黑屋|蓝光电影网

GMT+8, 2022-5-19 23:28 , Processed in 0.054266 second(s), 28 queries .

Powered by Discuz! X3.4

Copyright © 2001-2020, Tencent Cloud.

快速回复 返回顶部 返回列表