找回密码
 立即注册

QQ登录

只需一步,快速开始

查看: 75|回复: 0

[其他] 坏蛋联盟 The.Bad.Guys.2022.2160p.WEB-DL.x265.10bit.SDR.DDP5.1.Atmos-NoWhere 15.00GB

[复制链接]

0

精华

0

好友

2

听众

新手上路

Rank: 2

蓝光币
5
发表于 2022-5-7 07:58:00 | 显示全部楼层 |阅读模式


◎译  名 坏蛋联盟 / 大坏蛋 / 坏家伙 / Bad Guys
◎片  名 The Bad Guys
◎年  代 2022
◎产  地 美国
◎类  别 喜剧 / 动画 / 冒险
◎语  言 英语
◎上映日期 2022-04-29(中国大陆) / 2022-03-17(阿根廷) / 2022-04-22(美国)
◎IMDb链接 https://www.imdb.com/title/tt8115900/
◎豆瓣链接 https://movie.douban.com/subject/30165311/
◎片  长 100分钟
◎导  演 彼埃尔·佩里菲尔 Pierre Perifel (id:1408784)
◎编  剧 艾伦·布拉培 Aaron Blabey (id:1278711)
       伊坦·柯亨 Etan Cohen (id:1302166)
       尤尼·布伦纳 Yoni Brenner (id:1361293)
       希拉里·温斯顿 Hilary Winston (id:1321813)
◎演  员 山姆·洛克威尔 Sam Rockwell (id:1047972)
       马克·马龙 Marc Maron (id:1116943)
       奥卡菲娜 Awkwafina (id:1360857)
       克雷格·罗宾森 Craig Robinson (id:1142826)
       安东尼·拉莫斯 Anthony Ramos (id:1388489)
       理查德·艾欧阿德 Richard Ayoade (id:1274320)
       莎姬·贝兹 Zazie Beetz (id:1370059)
       艾利克斯·布诺斯町 Alex Borstein (id:1007007)
       莉莉·辛格 Lilly Singh (id:1393866)
       芭芭拉·古德森 Barbara Goodson (id:1102389)
       迪娜·莫罗 Dina Morrone  (id:1470954)
       迈克尔·高德尔 Michael Godere (id:1097245)
       凯莉·库尼 Kelly Cooney (id:1383206)
       沃尔特·道恩 Walt Dohrn (id:1371495)
       戴维·P·史密斯 David P. Smith (id:1408787)
◎简  介

  故事的主角是五个无恶不作的坏蛋——风度翩翩的扒手“大坏狼”、见多识广的保险箱窃贼“贪心蛇”、冷静沉稳的伪装大师“美肚鲨”、暴躁易怒的打手“食人鱼”、伶牙俐齿的黑客专家“骇客蛛”闪亮登场,他们是最臭名昭著的“坏蛋联盟”。他们平时威风八面,四处作案,令人闻风丧胆。直到某一天,他们突然想成为模范公民,然而转型路途甚是艰难,且意外层出不穷,令人啼笑皆非。
  1. Video
  2. ID                                       : 1
  3. Format                                   : HEVC
  4. Format/Info                              : High Efficiency Video Coding
  5. Format profile                           : Main [email protected]@High
  6. Codec ID                                 : V_MPEGH/ISO/HEVC
  7. Duration                                 : 1 h 40 min
  8. Bit rate                                 : 20.7 Mb/s
  9. Width                                    : 3 840 pixels
  10. Height                                   : 1 604 pixels
  11. Display aspect ratio                     : 2.40:1
  12. Frame rate mode                          : Constant
  13. Frame rate                               : 23.976 FPS
  14. Color space                              : YUV
  15. Chroma subsampling                       : 4:2:0
  16. Bit depth                                : 10 bits
  17. Bits/(Pixel*Frame)                       : 0.140
  18. Stream size                              : 14.5 GiB (96%)
  19. Default                                  : Yes
  20. Forced                                   : No
  21. Color range                              : Limited
  22. Color primaries                          : BT.709
  23. Transfer characteristics                 : BT.709
  24. Matrix coefficients                      : BT.709

  25. Audio
  26. ID                                       : 2
  27. Format                                   : E-AC-3 JOC
  28. Format/Info                              : Enhanced AC-3 with Joint Object Coding
  29. Commercial name                          : Dolby Digital Plus with Dolby Atmos
  30. Codec ID                                 : A_EAC3
  31. Duration                                 : 1 h 40 min
  32. Bit rate mode                            : Constant
  33. Bit rate                                 : 768 kb/s
  34. Channel(s)                               : 6 channels
  35. Channel layout                           : L R C LFE Ls Rs
  36. Sampling rate                            : 48.0 kHz
  37. Frame rate                               : 31.250 FPS (1536 SPF)
  38. Compression mode                         : Lossy
  39. Stream size                              : 550 MiB (4%)
  40. Language                                 : English
  41. Service kind                             : Complete Main
  42. Default                                  : Yes
  43. Forced                                   : No
  44. Complexity index                         : 16
  45. Number of dynamic objects                : 15
  46. Bed channel count                        : 1 channel
  47. Bed channel configuration                : LFE

  48. Text #1
  49. ID                                       : 3
  50. Format                                   : UTF-8
  51. Codec ID                                 : S_TEXT/UTF8
  52. Codec ID/Info                            : UTF-8 Plain Text
  53. Duration                                 : 1 h 39 min
  54. Bit rate                                 : 90 b/s
  55. Count of elements                        : 2288
  56. Stream size                              : 66.4 KiB (0%)
  57. Title                                    : English CC
  58. Language                                 : English
  59. Default                                  : No
  60. Forced                                   : No

  61. Text #2
  62. ID                                       : 4
  63. Format                                   : UTF-8
  64. Codec ID                                 : S_TEXT/UTF8
  65. Codec ID/Info                            : UTF-8 Plain Text
  66. Duration                                 : 1 h 39 min
  67. Bit rate                                 : 84 b/s
  68. Count of elements                        : 2002
  69. Stream size                              : 61.8 KiB (0%)
  70. Title                                    : English SDH
  71. Language                                 : English
  72. Default                                  : No
  73. Forced                                   : No

  74. Text #3
  75. ID                                       : 5
  76. Format                                   : UTF-8
  77. Codec ID                                 : S_TEXT/UTF8
  78. Codec ID/Info                            : UTF-8 Plain Text
  79. Duration                                 : 1 h 39 min
  80. Bit rate                                 : 70 b/s
  81. Count of elements                        : 1659
  82. Stream size                              : 51.0 KiB (0%)
  83. Title                                    : German
  84. Language                                 : German
  85. Default                                  : No
  86. Forced                                   : No

  87. Text #4
  88. ID                                       : 6
  89. Format                                   : UTF-8
  90. Codec ID                                 : S_TEXT/UTF8
  91. Codec ID/Info                            : UTF-8 Plain Text
  92. Duration                                 : 1 h 39 min
  93. Bit rate                                 : 71 b/s
  94. Count of elements                        : 1688
  95. Stream size                              : 52.0 KiB (0%)
  96. Title                                    : Spanish Latin American
  97. Language                                 : Spanish
  98. Default                                  : No
  99. Forced                                   : No

  100. Text #5
  101. ID                                       : 7
  102. Format                                   : UTF-8
  103. Codec ID                                 : S_TEXT/UTF8
  104. Codec ID/Info                            : UTF-8 Plain Text
  105. Duration                                 : 1 h 39 min
  106. Bit rate                                 : 73 b/s
  107. Count of elements                        : 1696
  108. Stream size                              : 53.4 KiB (0%)
  109. Title                                    : Portuguese Brazilian
  110. Language                                 : Portuguese
  111. Default                                  : No
  112. Forced                                   : No

  113. Menu
  114. 00:00:00.000                             : en:Chapter 01
  115. 00:06:10.036                             : en:Chapter 02
  116. 00:14:10.225                             : en:Chapter 03
  117. 00:19:38.053                             : en:Chapter 04
  118. 00:24:26.257                             : en:Chapter 05
  119. 00:30:49.891                             : en:Chapter 06
  120. 00:37:09.729                             : en:Chapter 07
  121. 00:41:27.779                             : en:Chapter 08
  122. 00:49:20.960                             : en:Chapter 09
  123. 00:55:02.093                             : en:Chapter 10
  124. 00:59:07.714                             : en:Chapter 11
  125. 01:06:22.232                             : en:Chapter 12
  126. 01:12:43.655                             : en:Chapter 13
  127. 01:17:43.496                             : en:Chapter 14
  128. 01:25:08.858                             : en:Chapter 15
  129. 01:30:57.582                             : en:Chapter 16
复制代码




                                       
                                       

                                       
                                       
                                       




The.Bad.Guys.2022.2160p.WEB-DL.x265.10bit.SDR.DDP5.1.Atmos-NoWhere.torrent (19.46 KB, 下载次数: 5)
回复

使用道具 举报

您需要登录后才可以回帖 登录 | 立即注册

本版积分规则

QQ|Archiver|手机版|小黑屋|蓝光电影网

GMT+8, 2022-5-20 00:12 , Processed in 0.054163 second(s), 28 queries .

Powered by Discuz! X3.4

Copyright © 2001-2020, Tencent Cloud.

快速回复 返回顶部 返回列表