找回密码
 立即注册

QQ登录

只需一步,快速开始

查看: 38|回复: 0

[其他] 坏蛋联盟 The.Bad.Guys.2022.2160p.WEB-DL.x265.10bit.HDR.DDP5.1.Atmos-NoWhere 10.63GB

[复制链接]

0

精华

0

好友

2

听众

新手上路

Rank: 2

蓝光币
5
发表于 2022-5-7 07:57:38 | 显示全部楼层 |阅读模式


◎译  名 坏蛋联盟 / 大坏蛋 / 坏家伙 / Bad Guys
◎片  名 The Bad Guys
◎年  代 2022
◎产  地 美国
◎类  别 喜剧 / 动画 / 冒险
◎语  言 英语
◎上映日期 2022-04-29(中国大陆) / 2022-03-17(阿根廷) / 2022-04-22(美国)
◎IMDb链接 https://www.imdb.com/title/tt8115900/
◎豆瓣链接 https://movie.douban.com/subject/30165311/
◎片  长 100分钟
◎导  演 彼埃尔·佩里菲尔 Pierre Perifel (id:1408784)
◎编  剧 艾伦·布拉培 Aaron Blabey (id:1278711)
       伊坦·柯亨 Etan Cohen (id:1302166)
       尤尼·布伦纳 Yoni Brenner (id:1361293)
       希拉里·温斯顿 Hilary Winston (id:1321813)
◎演  员 山姆·洛克威尔 Sam Rockwell (id:1047972)
       马克·马龙 Marc Maron (id:1116943)
       奥卡菲娜 Awkwafina (id:1360857)
       克雷格·罗宾森 Craig Robinson (id:1142826)
       安东尼·拉莫斯 Anthony Ramos (id:1388489)
       理查德·艾欧阿德 Richard Ayoade (id:1274320)
       莎姬·贝兹 Zazie Beetz (id:1370059)
       艾利克斯·布诺斯町 Alex Borstein (id:1007007)
       莉莉·辛格 Lilly Singh (id:1393866)
       芭芭拉·古德森 Barbara Goodson (id:1102389)
       迪娜·莫罗 Dina Morrone  (id:1470954)
       迈克尔·高德尔 Michael Godere (id:1097245)
       凯莉·库尼 Kelly Cooney (id:1383206)
       沃尔特·道恩 Walt Dohrn (id:1371495)
       戴维·P·史密斯 David P. Smith (id:1408787)
◎简  介

  故事的主角是五个无恶不作的坏蛋——风度翩翩的扒手“大坏狼”、见多识广的保险箱窃贼“贪心蛇”、冷静沉稳的伪装大师“美肚鲨”、暴躁易怒的打手“食人鱼”、伶牙俐齿的黑客专家“骇客蛛”闪亮登场,他们是最臭名昭著的“坏蛋联盟”。他们平时威风八面,四处作案,令人闻风丧胆。直到某一天,他们突然想成为模范公民,然而转型路途甚是艰难,且意外层出不穷,令人啼笑皆非。
  1. Video
  2. ID                                       : 1
  3. Format                                   : HEVC
  4. Format/Info                              : High Efficiency Video Coding
  5. Format profile                           : Main [email protected]@High
  6. HDR format                               : SMPTE ST 2086, HDR10 compatible
  7. Codec ID                                 : V_MPEGH/ISO/HEVC
  8. Duration                                 : 1 h 40 min
  9. Bit rate                                 : 14.4 Mb/s
  10. Width                                    : 3 840 pixels
  11. Height                                   : 1 604 pixels
  12. Display aspect ratio                     : 2.40:1
  13. Frame rate mode                          : Constant
  14. Frame rate                               : 23.976 FPS
  15. Color space                              : YUV
  16. Chroma subsampling                       : 4:2:0 (Type 2)
  17. Bit depth                                : 10 bits
  18. Bits/(Pixel*Frame)                       : 0.098
  19. Stream size                              : 10.1 GiB (95%)
  20. Default                                  : Yes
  21. Forced                                   : No
  22. Color range                              : Limited
  23. Color primaries                          : BT.2020
  24. Transfer characteristics                 : PQ
  25. Matrix coefficients                      : BT.2020 non-constant
  26. Mastering display color primaries        : BT.2020
  27. Mastering display luminance              : min: 0.0050 cd/m2, max: 1000 cd/m2
  28. Maximum Content Light Level              : 1062 cd/m2
  29. Maximum Frame-Average Light Level        : 241 cd/m2

  30. Audio
  31. ID                                       : 2
  32. Format                                   : E-AC-3 JOC
  33. Format/Info                              : Enhanced AC-3 with Joint Object Coding
  34. Commercial name                          : Dolby Digital Plus with Dolby Atmos
  35. Codec ID                                 : A_EAC3
  36. Duration                                 : 1 h 40 min
  37. Bit rate mode                            : Constant
  38. Bit rate                                 : 768 kb/s
  39. Channel(s)                               : 6 channels
  40. Channel layout                           : L R C LFE Ls Rs
  41. Sampling rate                            : 48.0 kHz
  42. Frame rate                               : 31.250 FPS (1536 SPF)
  43. Compression mode                         : Lossy
  44. Stream size                              : 550 MiB (5%)
  45. Language                                 : English
  46. Service kind                             : Complete Main
  47. Default                                  : Yes
  48. Forced                                   : No
  49. Complexity index                         : 16
  50. Number of dynamic objects                : 15
  51. Bed channel count                        : 1 channel
  52. Bed channel configuration                : LFE

  53. Text #1
  54. ID                                       : 3
  55. Format                                   : UTF-8
  56. Codec ID                                 : S_TEXT/UTF8
  57. Codec ID/Info                            : UTF-8 Plain Text
  58. Duration                                 : 1 h 39 min
  59. Bit rate                                 : 90 b/s
  60. Count of elements                        : 2288
  61. Stream size                              : 66.4 KiB (0%)
  62. Title                                    : English CC
  63. Language                                 : English
  64. Default                                  : No
  65. Forced                                   : No

  66. Text #2
  67. ID                                       : 4
  68. Format                                   : UTF-8
  69. Codec ID                                 : S_TEXT/UTF8
  70. Codec ID/Info                            : UTF-8 Plain Text
  71. Duration                                 : 1 h 39 min
  72. Bit rate                                 : 84 b/s
  73. Count of elements                        : 2002
  74. Stream size                              : 61.8 KiB (0%)
  75. Title                                    : English SDH
  76. Language                                 : English
  77. Default                                  : No
  78. Forced                                   : No

  79. Text #3
  80. ID                                       : 5
  81. Format                                   : UTF-8
  82. Codec ID                                 : S_TEXT/UTF8
  83. Codec ID/Info                            : UTF-8 Plain Text
  84. Duration                                 : 1 h 39 min
  85. Bit rate                                 : 70 b/s
  86. Count of elements                        : 1659
  87. Stream size                              : 51.0 KiB (0%)
  88. Title                                    : German
  89. Language                                 : German
  90. Default                                  : No
  91. Forced                                   : No

  92. Text #4
  93. ID                                       : 6
  94. Format                                   : UTF-8
  95. Codec ID                                 : S_TEXT/UTF8
  96. Codec ID/Info                            : UTF-8 Plain Text
  97. Duration                                 : 1 h 39 min
  98. Bit rate                                 : 71 b/s
  99. Count of elements                        : 1688
  100. Stream size                              : 52.0 KiB (0%)
  101. Title                                    : Spanish Latin American
  102. Language                                 : Spanish
  103. Default                                  : No
  104. Forced                                   : No

  105. Text #5
  106. ID                                       : 7
  107. Format                                   : UTF-8
  108. Codec ID                                 : S_TEXT/UTF8
  109. Codec ID/Info                            : UTF-8 Plain Text
  110. Duration                                 : 1 h 39 min
  111. Bit rate                                 : 73 b/s
  112. Count of elements                        : 1696
  113. Stream size                              : 53.4 KiB (0%)
  114. Title                                    : Portuguese Brazilian
  115. Language                                 : Portuguese
  116. Default                                  : No
  117. Forced                                   : No

  118. Menu
  119. 00:00:00.000                             : en:Chapter 01
  120. 00:06:10.036                             : en:Chapter 02
  121. 00:14:10.225                             : en:Chapter 03
  122. 00:19:38.053                             : en:Chapter 04
  123. 00:24:26.257                             : en:Chapter 05
  124. 00:30:49.891                             : en:Chapter 06
  125. 00:37:09.729                             : en:Chapter 07
  126. 00:41:27.779                             : en:Chapter 08
  127. 00:49:20.960                             : en:Chapter 09
  128. 00:55:02.093                             : en:Chapter 10
  129. 00:59:07.714                             : en:Chapter 11
  130. 01:06:22.232                             : en:Chapter 12
  131. 01:12:43.655                             : en:Chapter 13
  132. 01:17:43.496                             : en:Chapter 14
  133. 01:25:08.858                             : en:Chapter 15
  134. 01:30:57.582                             : en:Chapter 16
复制代码




                                       
                                       

                                       
                                       
                                       




The.Bad.Guys.2022.2160p.WEB-DL.x265.10bit.HDR.DDP5.1.Atmos-NoWhere.torrent (14 KB, 下载次数: 3)
回复

使用道具 举报

您需要登录后才可以回帖 登录 | 立即注册

本版积分规则

QQ|Archiver|手机版|小黑屋|蓝光电影网

GMT+8, 2022-5-20 00:14 , Processed in 0.053586 second(s), 28 queries .

Powered by Discuz! X3.4

Copyright © 2001-2020, Tencent Cloud.

快速回复 返回顶部 返回列表