找回密码
 立即注册

QQ登录

只需一步,快速开始

查看: 67|回复: 2

[惊悚片] 掘金 Gold.2022.1080p.BluRay.x264-JustWatch 8.43GB

[复制链接]

0

精华

0

好友

2

听众

新手上路

Rank: 2

蓝光币
5
发表于 2022-4-30 07:12:42 | 显示全部楼层 |阅读模式


◎译  名 掘金
◎片  名 Gold
◎年  代 2022
◎产  地 澳大利亚
◎类  别 惊悚
◎语  言 英语
◎上映日期 2022-01-13(澳大利亚)
◎IMDb链接 https://www.imdb.com/title/tt6020800/
◎豆瓣评分 6.2/10 (2211人评价)
◎豆瓣链接 https://movie.douban.com/subject/33447864/
◎片  长 97分钟
◎导  演 安东尼·海斯 Anthony Hayes (id:1050223)
◎编  剧 安东尼·海斯 Anthony Hayes (id:1050223)
◎演  员 扎克·埃夫隆 Zac Efron (id:1016676)
       安东尼·海斯 Anthony Hayes (id:1050223)
       苏茜·波特 Susie Porter (id:1294759)
◎简  介

  萨姆·沃辛顿将主演惊悚片[掘金](Gold,暂译)。本片由安东尼·海耶斯执导,并与波莉·史密斯共同撰写剧本。该故事讲述两名男子穿越偏远沙漠,偶然发现了他们认为是迄今为止发现的最大金块。于是他们策划了一个挖掘宝藏的计划,一人交托了保护设备,另一人留在后方看护发现的金子。本片将于9月在南澳大利亚开拍。
  1. Video
  2. ID                                       : 1
  3. Format                                   : AVC
  4. Format/Info                              : Advanced Video Codec
  5. Format profile                           : [email protected]
  6. Format settings                          : CABAC / 5 Ref Frames
  7. Format settings, CABAC                   : Yes
  8. Format settings, Reference frames        : 5 frames
  9. Codec ID                                 : V_MPEG4/ISO/AVC
  10. Duration                                 : 1 h 36 min
  11. Bit rate                                 : 9 090 kb/s
  12. Width                                    : 1 920 pixels
  13. Height                                   : 800 pixels
  14. Display aspect ratio                     : 2.40:1
  15. Frame rate mode                          : Constant
  16. Frame rate                               : 24.000 FPS
  17. Color space                              : YUV
  18. Chroma subsampling                       : 4:2:0
  19. Bit depth                                : 8 bits
  20. Scan type                                : Progressive
  21. Bits/(Pixel*Frame)                       : 0.247
  22. Stream size                              : 6.14 GiB (73%)
  23. Writing library                          : x264 core 164 r3094 bfc87b7
  24. Encoding settings                        : cabac=1 / ref=5 / deblock=1:-3:-3 / analyse=0x3:0x133 / me=umh / subme=9 / psy=1 / psy_rd=1.00:0.00 / mixed_ref=1 / me_range=16 / chroma_me=1 / trellis=2 / 8x8dct=1 / cqm=0 / deadzone=21,11 / fast_pskip=0 / chroma_qp_offset=-2 / threads=25 / lookahead_threads=2 / sliced_threads=0 / nr=0 / decimate=1 / interlaced=0 / bluray_compat=0 / constrained_intra=0 / bframes=3 / b_pyramid=2 / b_adapt=2 / b_bias=0 / direct=3 / weightb=1 / open_gop=0 / weightp=2 / keyint=250 / keyint_min=24 / scenecut=40 / intra_refresh=0 / rc_lookahead=60 / rc=crf / mbtree=1 / crf=17.0 / qcomp=0.60 / qpmin=0 / qpmax=69 / qpstep=4 / ip_ratio=1.40 / aq=1:1.00
  25. Language                                 : English
  26. Default                                  : Yes
  27. Forced                                   : No

  28. Audio
  29. ID                                       : 2
  30. Format                                   : DTS XLL
  31. Format/Info                              : Digital Theater Systems
  32. Commercial name                          : DTS-HD Master Audio
  33. Codec ID                                 : A_DTS
  34. Duration                                 : 1 h 36 min
  35. Bit rate mode                            : Variable
  36. Bit rate                                 : 3 390 kb/s
  37. Channel(s)                               : 6 channels
  38. Channel layout                           : C L R Ls Rs LFE
  39. Sampling rate                            : 48.0 kHz
  40. Frame rate                               : 93.750 FPS (512 SPF)
  41. Bit depth                                : 24 bits
  42. Compression mode                         : Lossless
  43. Stream size                              : 2.29 GiB (27%)
  44. Language                                 : English
  45. Default                                  : Yes
  46. Forced                                   : No

  47. Text #1
  48. ID                                       : 3
  49. Format                                   : PGS
  50. Muxing mode                              : zlib
  51. Codec ID                                 : S_HDMV/PGS
  52. Codec ID/Info                            : Picture based subtitle format used on BDs/HD-DVDs
  53. Duration                                 : 1 h 36 min
  54. Bit rate                                 : 13.0 kb/s
  55. Count of elements                        : 1346
  56. Stream size                              : 9.00 MiB (0%)
  57. Language                                 : German
  58. Default                                  : No
  59. Forced                                   : No

  60. Text #2
  61. ID                                       : 4
  62. Format                                   : PGS
  63. Muxing mode                              : zlib
  64. Codec ID                                 : S_HDMV/PGS
  65. Codec ID/Info                            : Picture based subtitle format used on BDs/HD-DVDs
  66. Duration                                 : 4 s 42 ms
  67. Bit rate                                 : 48.7 kb/s
  68. Count of elements                        : 2
  69. Stream size                              : 24.0 KiB (0%)
  70. Language                                 : German
  71. Default                                  : No
  72. Forced                                   : No

  73. Menu
  74. 00:00:00.000                             : en:Chapter 01
  75. 00:09:39.208                             : en:Chapter 02
  76. 00:16:58.417                             : en:Chapter 03
  77. 00:26:21.167                             : en:Chapter 04
  78. 00:38:04.917                             : en:Chapter 05
  79. 00:44:34.875                             : en:Chapter 06
  80. 00:54:53.375                             : en:Chapter 07
  81. 01:06:27.583                             : en:Chapter 08
  82. 01:15:22.500                             : en:Chapter 09
  83. 01:25:15.542                             : en:Chapter 10
复制代码




                                       
                                       

                                       
                                       
                                       




Gold.2022.1080p.BluRay.x264-JustWatch.torrent (21.79 KB, 下载次数: 0)
回复

使用道具 举报

0

精华

0

好友

1

听众

新手上路

Rank: 1

蓝光币
0
发表于 2022-4-30 20:17:03 | 显示全部楼层
资源太好了
回复

使用道具 举报

0

精华

0

好友

1

听众

新手上路

Rank: 1

蓝光币
0
发表于 2022-5-1 20:35:34 | 显示全部楼层
辛苦楼主
回复

使用道具 举报

您需要登录后才可以回帖 登录 | 立即注册

本版积分规则

QQ|Archiver|手机版|小黑屋|蓝光电影网

GMT+8, 2022-5-19 23:53 , Processed in 0.071617 second(s), 26 queries .

Powered by Discuz! X3.4

Copyright © 2001-2020, Tencent Cloud.

快速回复 返回顶部 返回列表