找回密码
 立即注册

QQ登录

只需一步,快速开始

查看: 254|回复: 3

[其他] 月球陨落 Moonfall.2022.2160p.WEB-DL.x265.10bit.HDR.DDP5.1.Atmos-NOGRP 22.57GB

[复制链接]

0

精华

0

好友

2

听众

新手上路

Rank: 2

蓝光币
5
发表于 2022-4-2 07:55:02 | 显示全部楼层 |阅读模式


◎译  名 月球陨落 / 月球坠落
◎片  名 Moonfall
◎年  代 2022
◎产  地 美国 / 中国大陆 / 英国
◎类  别 科幻 / 灾难
◎语  言 英语 / 汉语普通话
◎上映日期 2022-03-25(中国大陆) / 2022-02-04(美国)
◎IMDb链接 https://www.imdb.com/title/tt5834426/
◎豆瓣评分 5.6/10 (24000人评价)
◎豆瓣链接 https://movie.douban.com/subject/26825482/
◎片  长 130分钟
◎导  演 罗兰·艾默里奇 Roland Emmerich (id:1040593)
◎编  剧 罗兰·艾默里奇 Roland Emmerich (id:1040593)
       哈洛德·克卢瑟 Harald Kloser (id:1009834)
       斯宾塞·科恩 Spenser Cohen (id:1397103)
◎演  员 哈莉·贝瑞 Halle Berry (id:1054415)
       帕特里克·威尔森 Patrick Wilson (id:1006919)
       约翰·布莱德利 John Bradley (id:1314665)
       于文文 Kelly Yu (id:1342252)
       迈克尔·佩纳 Michael Pe?a (id:1131634)
       唐纳德·萨瑟兰 Donald Sutherland (id:1010556)
       查理·普拉默 Charlie Plummer (id:1350090)
       艾米·伊库瓦克 Eme Ikwuakor  (id:1467718)
       卡罗林纳·巴特察克 Carolina Bartczak (id:1332869)
       马克西姆·罗伊 Maxim Roy (id:1139679)
       斯蒂夫·博加尔特 Stephen Bogaert (id:1350047)
       蒂龙·本斯金 Tyrone Benskin (id:1389182)
       乔什·克鲁达斯 Josh Cruddas (id:1442635)
       凯蒂·布赖尔 Katy Breier (id:1444407)
       克里斯·桑迪福德 Chris Sandiford (id:1239842)
       兰迪·托马斯 Randy Thomas (id:1149651)
       克里什陶·马尔尚 Krista Marchand (id:1452439)
       泰勒·艾略特·伯克 Tyler Elliot Burke (id:1335425)
       娜塔莉·希波蒂 Nathaly Thibault (id:1345419)
       贾·史密斯-约翰逊 Jaa Smith-Johnson (id:1335589)
       史蒂文·皮奥维森 Steven Piovesan (id:1348738)
       大卫·泰勒 David Tyler (id:1243183)
       罗兰·艾默里奇 Roland Emmerich (id:1040593)
       王中军 Zhongjun Wang (id:1276036)
       王中磊 Zhonglei Wang (id:1276037)
       马里奥·达维尼翁 Mario Davignon (id:1281890)
       费利克斯·安托万·杜瓦尔 Félix-Antoine Duval (id:1465038)
◎简  介

  仰望星空,?亮?向是那么的永恒。但在不久的将来,?球被?股神秘的?量驱使离开?球轨道,向我们熟知的地球?速?来,?在众?都放弃希望,地球上如世界末??般时,??看似乌合之众的团队决定为地球进?最后?搏,冒险为保卫?类最后?战。
  1. Video
  2. ID                                       : 1
  3. Format                                   : HEVC
  4. Format/Info                              : High Efficiency Video Coding
  5. Format profile                           : Main [email protected]@High
  6. HDR format                               : SMPTE ST 2086, HDR10 compatible
  7. Codec ID                                 : V_MPEGH/ISO/HEVC
  8. Duration                                 : 2 h 10 min
  9. Bit rate                                 : 24.0 Mb/s
  10. Width                                    : 3 832 pixels
  11. Height                                   : 1 600 pixels
  12. Display aspect ratio                     : 2.40:1
  13. Frame rate mode                          : Constant
  14. Frame rate                               : 23.976 FPS
  15. Color space                              : YUV
  16. Chroma subsampling                       : 4:2:0 (Type 2)
  17. Bit depth                                : 10 bits
  18. Bits/(Pixel*Frame)                       : 0.163
  19. Stream size                              : 21.9 GiB (97%)
  20. Default                                  : Yes
  21. Forced                                   : No
  22. Color range                              : Limited
  23. Color primaries                          : BT.2020
  24. Transfer characteristics                 : PQ
  25. Matrix coefficients                      : BT.2020 non-constant
  26. Mastering display color primaries        : BT.2020
  27. Mastering display luminance              : min: 0.0050 cd/m2, max: 1000 cd/m2
  28. Maximum Content Light Level              : 958 cd/m2
  29. Maximum Frame-Average Light Level        : 602 cd/m2
  30. Audio
  31. ID                                       : 2
  32. Format                                   : E-AC-3 JOC
  33. Format/Info                              : Enhanced AC-3 with Joint Object Coding
  34. Commercial name                          : Dolby Digital Plus with Dolby Atmos
  35. Codec ID                                 : A_EAC3
  36. Duration                                 : 2 h 10 min
  37. Bit rate mode                            : Constant
  38. Bit rate                                 : 768 kb/s
  39. Channel(s)                               : 6 channels
  40. Channel layout                           : L R C LFE Ls Rs
  41. Sampling rate                            : 48.0 kHz
  42. Frame rate                               : 31.250 FPS (1536 SPF)
  43. Compression mode                         : Lossy
  44. Stream size                              : 716 MiB (3%)
  45. Language                                 : English
  46. Service kind                             : Complete Main
  47. Default                                  : Yes
  48. Forced                                   : No
  49. Complexity index                         : 16
  50. Number of dynamic objects                : 15
  51. Bed channel count                        : 1 channel
  52. Bed channel configuration                : LFE
  53. Text #1
  54. ID                                       : 3
  55. Format                                   : UTF-8
  56. Codec ID                                 : S_TEXT/UTF8
  57. Codec ID/Info                            : UTF-8 Plain Text
  58. Duration                                 : 2 h 0 min
  59. Bit rate                                 : 69 b/s
  60. Count of elements                        : 2261
  61. Stream size                              : 61.8 KiB (0%)
  62. Title                                    : English
  63. Language                                 : English
  64. Default                                  : Yes
  65. Forced                                   : No
  66. Text #2
  67. ID                                       : 4
  68. Format                                   : UTF-8
  69. Codec ID                                 : S_TEXT/UTF8
  70. Codec ID/Info                            : UTF-8 Plain Text
  71. Duration                                 : 2 h 0 min
  72. Bit rate                                 : 72 b/s
  73. Count of elements                        : 2266
  74. Stream size                              : 64.1 KiB (0%)
  75. Title                                    : English [SDH]
  76. Language                                 : English
  77. Default                                  : No
  78. Forced                                   : No
  79. Text #3
  80. ID                                       : 5
  81. Format                                   : UTF-8
  82. Codec ID                                 : S_TEXT/UTF8
  83. Codec ID/Info                            : UTF-8 Plain Text
  84. Duration                                 : 2 h 10 min
  85. Bit rate                                 : 51 b/s
  86. Count of elements                        : 1776
  87. Stream size                              : 49.3 KiB (0%)
  88. Title                                    : French
  89. Language                                 : French
  90. Default                                  : No
  91. Forced                                   : No
  92. Text #4
  93. ID                                       : 6
  94. Format                                   : UTF-8
  95. Codec ID                                 : S_TEXT/UTF8
  96. Codec ID/Info                            : UTF-8 Plain Text
  97. Duration                                 : 2 h 0 min
  98. Bit rate                                 : 72 b/s
  99. Count of elements                        : 1686
  100. Stream size                              : 64.1 KiB (0%)
  101. Title                                    : French [SDH]
  102. Language                                 : French
  103. Default                                  : No
  104. Forced                                   : No
复制代码




                                       
                                       

                                       
                                       
                                       




Moonfall.2022.2160p.WEB-DL.x265.10bit.HDR.DDP5.1.Atmos-NOGRP.torrent (28.86 KB, 下载次数: 33)
回复

使用道具 举报

0

精华

0

好友

2

听众

新手上路

Rank: 1

蓝光币
0
发表于 2022-4-4 16:28:53 | 显示全部楼层
不错,谢谢分享好电影
回复

使用道具 举报

0

精华

0

好友

2

听众

新手上路

Rank: 1

蓝光币
0
发表于 2022-4-6 05:46:56 | 显示全部楼层
终于找到资源了
回复

使用道具 举报

0

精华

0

好友

2

听众

新手上路

Rank: 1

蓝光币
0
发表于 2022-4-6 08:52:52 | 显示全部楼层
学习,多谢
回复

使用道具 举报

您需要登录后才可以回帖 登录 | 立即注册

本版积分规则

QQ|Archiver|手机版|小黑屋|蓝光电影网

GMT+8, 2022-5-19 22:43 , Processed in 0.056939 second(s), 28 queries .

Powered by Discuz! X3.4

Copyright © 2001-2020, Tencent Cloud.

快速回复 返回顶部 返回列表