找回密码
 立即注册

QQ登录

只需一步,快速开始

查看: 160|回复: 1

[其他] 月球陨落 Moonfall.2022.2160p.WEB-DL.DDP5.1.Atmos.DV.MKV.x265-DVSUX 22.67GB

[复制链接]

0

精华

0

好友

2

听众

新手上路

Rank: 2

蓝光币
5
发表于 2022-4-2 07:54:37 | 显示全部楼层 |阅读模式


◎译  名 月球陨落 / 月球坠落
◎片  名 Moonfall
◎年  代 2022
◎产  地 美国 / 中国大陆 / 英国
◎类  别 科幻 / 灾难
◎语  言 英语 / 汉语普通话
◎上映日期 2022-03-25(中国大陆) / 2022-02-04(美国)
◎IMDb链接 https://www.imdb.com/title/tt5834426/
◎豆瓣评分 5.6/10 (24000人评价)
◎豆瓣链接 https://movie.douban.com/subject/26825482/
◎片  长 130分钟
◎导  演 罗兰·艾默里奇 Roland Emmerich (id:1040593)
◎编  剧 罗兰·艾默里奇 Roland Emmerich (id:1040593)
       哈洛德·克卢瑟 Harald Kloser (id:1009834)
       斯宾塞·科恩 Spenser Cohen (id:1397103)
◎演  员 哈莉·贝瑞 Halle Berry (id:1054415)
       帕特里克·威尔森 Patrick Wilson (id:1006919)
       约翰·布莱德利 John Bradley (id:1314665)
       于文文 Kelly Yu (id:1342252)
       迈克尔·佩纳 Michael Pe?a (id:1131634)
       唐纳德·萨瑟兰 Donald Sutherland (id:1010556)
       查理·普拉默 Charlie Plummer (id:1350090)
       艾米·伊库瓦克 Eme Ikwuakor  (id:1467718)
       卡罗林纳·巴特察克 Carolina Bartczak (id:1332869)
       马克西姆·罗伊 Maxim Roy (id:1139679)
       斯蒂夫·博加尔特 Stephen Bogaert (id:1350047)
       蒂龙·本斯金 Tyrone Benskin (id:1389182)
       乔什·克鲁达斯 Josh Cruddas (id:1442635)
       凯蒂·布赖尔 Katy Breier (id:1444407)
       克里斯·桑迪福德 Chris Sandiford (id:1239842)
       兰迪·托马斯 Randy Thomas (id:1149651)
       克里什陶·马尔尚 Krista Marchand (id:1452439)
       泰勒·艾略特·伯克 Tyler Elliot Burke (id:1335425)
       娜塔莉·希波蒂 Nathaly Thibault (id:1345419)
       贾·史密斯-约翰逊 Jaa Smith-Johnson (id:1335589)
       史蒂文·皮奥维森 Steven Piovesan (id:1348738)
       大卫·泰勒 David Tyler (id:1243183)
       罗兰·艾默里奇 Roland Emmerich (id:1040593)
       王中军 Zhongjun Wang (id:1276036)
       王中磊 Zhonglei Wang (id:1276037)
       马里奥·达维尼翁 Mario Davignon (id:1281890)
       费利克斯·安托万·杜瓦尔 Félix-Antoine Duval (id:1465038)
◎简  介

  仰望星空,?亮?向是那么的永恒。但在不久的将来,?球被?股神秘的?量驱使离开?球轨道,向我们熟知的地球?速?来,?在众?都放弃希望,地球上如世界末??般时,??看似乌合之众的团队决定为地球进?最后?搏,冒险为保卫?类最后?战。
  1. Video
  2. ID                                       : 1
  3. Format                                   : HEVC
  4. Format/Info                              : High Efficiency Video Coding
  5. Format profile                           : Main [email protected]@High
  6. HDR format                               : Dolby Vision, Version 1.0, dvhe.05.06, BL+RPU
  7. Codec ID                                 : V_MPEGH/ISO/HEVC
  8. Duration                                 : 2 h 10 min
  9. Bit rate                                 : 24.1 Mb/s
  10. Width                                    : 3 832 pixels
  11. Height                                   : 1 600 pixels
  12. Display aspect ratio                     : 2.40:1
  13. Frame rate mode                          : Constant
  14. Frame rate                               : 23.976 (24000/1001/189150) FPS
  15. Color space                              : YUV
  16. Chroma subsampling                       : 4:2:0
  17. Bit depth                                : 10 bits
  18. Bits/(Pixel*Frame)                       : 0.164
  19. Stream size                              : 22.0 GiB (97%)
  20. Default                                  : Yes
  21. Forced                                   : No
  22. Audio
  23. ID                                       : 2
  24. Format                                   : E-AC-3 JOC
  25. Format/Info                              : Enhanced AC-3 with Joint Object Coding
  26. Commercial name                          : Dolby Digital Plus with Dolby Atmos
  27. Codec ID                                 : A_EAC3
  28. Duration                                 : 2 h 10 min
  29. Bit rate mode                            : Constant
  30. Bit rate                                 : 768 kb/s
  31. Channel(s)                               : 6 channels
  32. Channel layout                           : L R C LFE Ls Rs
  33. Sampling rate                            : 48.0 kHz
  34. Frame rate                               : 31.250 FPS (1536 SPF)
  35. Compression mode                         : Lossy
  36. Stream size                              : 716 MiB (3%)
  37. Language                                 : English
  38. Service kind                             : Complete Main
  39. Default                                  : Yes
  40. Forced                                   : No
  41. Complexity index                         : 16
  42. Number of dynamic objects                : 15
  43. Bed channel count                        : 1 channel
  44. Bed channel configuration                : LFE
  45. Text #1
  46. ID                                       : 3
  47. Format                                   : UTF-8
  48. Codec ID                                 : S_TEXT/UTF8
  49. Codec ID/Info                            : UTF-8 Plain Text
  50. Duration                                 : 2 h 0 min
  51. Bit rate                                 : 69 b/s
  52. Count of elements                        : 2261
  53. Stream size                              : 61.8 KiB (0%)
  54. Title                                    : English
  55. Language                                 : English
  56. Default                                  : Yes
  57. Forced                                   : No
  58. Text #2
  59. ID                                       : 4
  60. Format                                   : UTF-8
  61. Codec ID                                 : S_TEXT/UTF8
  62. Codec ID/Info                            : UTF-8 Plain Text
  63. Duration                                 : 2 h 0 min
  64. Bit rate                                 : 72 b/s
  65. Count of elements                        : 2266
  66. Stream size                              : 64.1 KiB (0%)
  67. Title                                    : English [SDH]
  68. Language                                 : English
  69. Default                                  : No
  70. Forced                                   : No
  71. Text #3
  72. ID                                       : 5
  73. Format                                   : UTF-8
  74. Codec ID                                 : S_TEXT/UTF8
  75. Codec ID/Info                            : UTF-8 Plain Text
  76. Duration                                 : 2 h 10 min
  77. Bit rate                                 : 51 b/s
  78. Count of elements                        : 1776
  79. Stream size                              : 49.3 KiB (0%)
  80. Title                                    : French
  81. Language                                 : French
  82. Default                                  : No
  83. Forced                                   : No
  84. Text #4
  85. ID                                       : 6
  86. Format                                   : UTF-8
  87. Codec ID                                 : S_TEXT/UTF8
  88. Codec ID/Info                            : UTF-8 Plain Text
  89. Duration                                 : 2 h 0 min
  90. Bit rate                                 : 72 b/s
  91. Count of elements                        : 1686
  92. Stream size                              : 64.1 KiB (0%)
  93. Title                                    : French [SDH]
  94. Language                                 : French
  95. Default                                  : No
  96. Forced                                   : No
复制代码




                                       
                                       

                                       
                                       
                                       




Moonfall.2022.2160p.WEB-DL.DDP5.1.Atmos.DV.MKV.x265-DVSUX.torrent (28.99 KB, 下载次数: 25)
回复

使用道具 举报

0

精华

0

好友

2

听众

新手上路

Rank: 1

蓝光币
0
发表于 2022-4-8 22:58:56 | 显示全部楼层
谢谢分享谢谢分享谢谢分享
回复

使用道具 举报

您需要登录后才可以回帖 登录 | 立即注册

本版积分规则

QQ|Archiver|手机版|小黑屋|蓝光电影网

GMT+8, 2022-5-19 23:33 , Processed in 0.077314 second(s), 28 queries .

Powered by Discuz! X3.4

Copyright © 2001-2020, Tencent Cloud.

快速回复 返回顶部 返回列表