找回密码
 立即注册

QQ登录

只需一步,快速开始

查看: 1648|回复: 0

[10bit.HDR] 爱与怪物/怪物问题 Love.and.Monsters.2020.2160p.UHD.BluRay.x265.10bit.HDR.DTS-HD.MA.7.1-SWTYBLZ 16.64GB

[复制链接]

已抛锚 成长值: 310

0

精华

0

好友

0

听众

管理员

Rank: 9Rank: 9Rank: 9

蓝光币
7041
发表于 2021-1-12 23:59:08 | 显示全部楼层 |阅读模式


译  名 爱与怪物 / Monster Problems / 怪物题目
片  名 Love and Monsters
年  代 2020
产  地 美国
类  别 冒险
语  言 英语
上映日期 2020-10-16(美国)
IMDb链接https://www.imdb.com/title/tt2222042
豆瓣评分 0/10 from 0 users
豆瓣链接 https://movie.douban.com/subject/21349338/
导  演 迈克尔·马修斯 Michael Matthews
编  剧 布莱恩·达菲尔德 Brian Duffield / 马修·罗宾逊 Matthew Robinson
主  演 迪伦·奥布莱恩 Dylan O'Brien
     梅拉妮·萨内蒂 Melanie Zanetti
     迈克尔·鲁克 Michael Rooker
     杰西卡·亨维克 Jessica Henwick
     艾伦·霍尔曼 Ellen Hollman
     阿玛莉·沃德 Amali Ward
     阿丽亚娜·格林布拉特 Ariana Greenblatt
     丹尼尔·尤因 Daniel Ewing
     达米安·加维 Damien Garvey
     塔斯尼姆·罗克 Tasneem Roc
     拉里·塞达尔 Larry Cedar
     坦蒂·莱特 Tandi Wright
     特克赫·图哈卡 Te Kohe Tuhaka
     米莉亚玛·史姑娘 Miriama Smith
     安德鲁·布坎南 Andrew Buchanan
     托马斯·坎贝尔 Thomas Campbell
标  签 科幻 | 奇异 | 迪伦·奥布莱恩 | 美国 | 怪物 | 2020 | 电影 | 美国电影
简  介
  影片据称气概连系《僵尸之地》和约翰·修斯的青少年电影,报告一场“怪物末日”迫使一切人类转到地下殖民地居住,此事务7年后,男主Joel Dawson(奥布莱恩)目击身旁的幸存者们都成双成对了,他也想和自己的梦中女孩Aimee(亨维克)在一路。为此,Dawson勇敢地去到地表,并和一只勇敢的狗狗及两小我(鲁克和Greenblatt)成了队友,在他们的帮助下,Dawson要尽力穿越怪兽横行的后末世,寻觅真爱。

  1. Video
  2. ID             : 1
  3. Format           : HEVC
  4. Format/Info          : High Efficiency Video Coding
  5. Format profile         : Main [email]10@L5.1[/email]@High
  6. HDR format           : SMPTE ST 2086, HDR10 compatible
  7. Codec ID           : V_MPEGH/ISO/HEVC
  8. Duration           : 1 h 48 min
  9. Bit rate           : 16.6 Mb/s
  10. Width            : 3 840 pixels
  11. Height           : 1 606 pixels
  12. Display aspect ratio       : 2.40:1
  13. Frame rate mode        : Constant
  14. Frame rate           : 23.976 (24000/1001) FPS
  15. Color space          : YUV
  16. Chroma subsampling       : 4:2:0 (Type 2)
  17. Bit depth          : 10 bits
  18. Bits/(Pixel*Frame)       : 0.113
  19. Stream size          : 12.7 GiB (76%)
  20. Writing library        : x265 3.0_Au+10-74a8672ea4f7:[Windows][GCC 8.2.1][64 bit] 10bit
  21. Encoding settings        : cpuid=1111039 / frame-threads=6 / numa-pools=40 / wpp / no-pmode / no-pme / no-psnr / no-ssim / log-level=2 / input-csp=1 / input-res=3840x1606 / interlace=0 / total-frames=0 / level-idc=51 / high-tier=1 / uhd-bd=0 / ref=3 / no-allow-non-conformance / repeat-headers / annexb / aud / hrd / info / hash=0 / no-temporal-layers / no-open-gop / min-keyint=1 / keyint=24 / gop-lookahead=0 / bframes=4 / b-adapt=2 / b-pyramid / bframe-bias=0 / rc-lookahead=25 / lookahead-slices=4 / scenecut=40 / radl=0 / no-splice / no-intra-refresh / ctu=64 / min-cu-size=8 / no-rect / no-amp / max-tu-size=32 / tu-inter-depth=1 / tu-intra-depth=1 / limit-tu=0 / rdoq-level=0 / dynamic-rd=0.00 / no-ssim-rd / signhide / no-tskip / nr-intra=0 / nr-inter=0 / no-constrained-intra / strong-intra-smoothing / max-merge=2 / limit-refs=3 / no-limit-modes / me=1 / subme=2 / merange=57 / temporal-mvp / weightp / no-weightb / no-analyze-src-pics / deblock=0:0 / no-sao / no-sao-non-deblock / rd=3 / no-early-skip / rskip / no-fast-intra / no-tskip-fast / no-cu-lossless / no-b-intra / no-splitrd-skip / rdpenalty=0 / psy-rd=2.00 / psy-rdoq=0.00 / no-rd-refine / no-lossless / cbqpoffs=0 / crqpoffs=0 / rc=crf / crf=16.0 / qcomp=0.60 / qpstep=4 / stats-write=0 / stats-read=0 / vbv-maxrate=160000 / vbv-bufsize=160000 / vbv-init=0.9 / crf-max=0.0 / crf-min=0.0 / ipratio=1.40 / pbratio=1.30 / aq-mode=1 / aq-strength=1.00 / cutree / zone-count=0 / no-strict-cbr / qg-size=32 / no-rc-grain / qpmax=69 / qpmin=0 / no-const-vbv / sar=1 / overscan=0 / videoformat=5 / range=0 / colorprim=9 / transfer=16 / colormatrix=9 / chromaloc=1 / chromaloc-top=2 / chromaloc-bottom=2 / display-window=0 / master-display=G(13250,34500)B(7500,3000)R(34000,16000)WP(15635,16450)L(40000000,50) / max-cll=1000,520 / min-luma=0 / max-luma=1023 / log2-max-poc-lsb=8 / vui-timing-info / vui-hrd-info / slices=1 / opt-qp-pps / opt-ref-list-length-pps / no-multi-pass-opt-rps / scenecut-bias=0.05 / no-opt-cu-delta-qp / no-aq-motion / hdr / hdr-opt / no-dhdr10-opt / no-idr-recovery-sei / analysis-reuse-level=5 / scale-factor=0 / refine-intra=0 / refine-inter=0 / refine-mv=0 / refine-ctu-distortion=0 / no-limit-sao / ctu-info=0 / no-lowpass-dct / refine-analysis-type=0 / copy-pic=1 / max-ausize-factor=1.0 / no-dynamic-refine / no-single-sei / no-hevc-aq / no-svt / qp-adaptation-range=1.00
  22. Default            : Yes
  23. Forced           : No
  24. Color range          : Limited
  25. Color primaries        : BT.2020
  26. Transfer characteristics     : PQ
  27. Matrix coefficients        : BT.2020 non-constant
  28. Mastering display color primaries  : Display P3
  29. Mastering display luminance    : min: 0.0050 cd/m2, max: 4000 cd/m2
  30. Maximum Content Light Level    : 1000 cd/m2
  31. Maximum Frame-Average Light Level  : 520 cd/m2
  32. Audio #1
  33. ID             : 2
  34. Format           : DTS XLL
  35. Format/Info          : Digital Theater Systems
  36. Commercial name        : DTS-HD Master Audio
  37. Codec ID           : A_DTS
  38. Duration           : 1 h 48 min
  39. Bit rate mode          : Variable
  40. Bit rate           : 4 413 kb/s
  41. Channel(s)           : 8 channels
  42. Channel layout         : C L R LFE Lb Rb Lss Rss
  43. Sampling rate          : 48.0 kHz
  44. Frame rate           : 93.750 FPS (512 SPF)
  45. Bit depth          : 24 bits
  46. Compression mode         : Lossless
  47. Stream size          : 3.36 GiB (20%)
  48. Title            : DTS-HD MA 7.1
  49. Language           : English
  50. Default            : Yes
  51. Forced           : No
  52. Audio #2
  53. ID             : 3
  54. Format           : AC-3
  55. Format/Info          : Audio Coding 3
  56. Commercial name        : Dolby Digital
  57. Codec ID           : A_AC3
  58. Duration           : 1 h 48 min
  59. Bit rate mode          : Constant
  60. Bit rate           : 640 kb/s
  61. Channel(s)           : 6 channels
  62. Channel layout         : L R C LFE Ls Rs
  63. Sampling rate          : 48.0 kHz
  64. Frame rate           : 31.250 FPS (1536 SPF)
  65. Compression mode         : Lossy
  66. Stream size          : 498 MiB (3%)
  67. Title            : DD 5.1
  68. Language           : English
  69. Service kind         : Complete Main
  70. Default            : No
  71. Forced           : No
  72. Text #1
  73. ID             : 4
  74. Format           : UTF-8
  75. Codec ID           : S_TEXT/UTF8
  76. Codec ID/Info          : UTF-8 Plain Text
  77. Duration           : 1 h 41 min
  78. Bit rate           : 60 b/s
  79. Count of elements        : 1402
  80. Stream size          : 45.2 KiB (0%)
  81. Title            : English-SRT
  82. Language           : English
  83. Default            : Yes
  84. Forced           : No
  85. Text #2
  86. ID             : 5
  87. Format           : PGS
  88. Muxing mode          : zlib
  89. Codec ID           : S_HDMV/PGS
  90. Codec ID/Info          : Picture based subtitle format used on BDs/HD-DVDs
  91. Duration           : 1 h 41 min
  92. Bit rate           : 41.7 kb/s
  93. Count of elements        : 2812
  94. Stream size          : 30.3 MiB (0%)
  95. Title            : English-PGS
  96. Language           : English
  97. Default            : No
  98. Forced           : No
  99. Text #3
  100. ID             : 6
  101. Format           : PGS
  102. Muxing mode          : zlib
  103. Codec ID           : S_HDMV/PGS
  104. Codec ID/Info          : Picture based subtitle format used on BDs/HD-DVDs
  105. Duration           : 1 h 42 min
  106. Bit rate           : 49.9 kb/s
  107. Count of elements        : 3374
  108. Stream size          : 36.8 MiB (0%)
  109. Title            : English-SDH-PGS
  110. Language           : English
  111. Default            : No
  112. Forced           : No
  113. Text #4
  114. ID             : 7
  115. Format           : PGS
  116. Muxing mode          : zlib
  117. Codec ID           : S_HDMV/PGS
  118. Codec ID/Info          : Picture based subtitle format used on BDs/HD-DVDs
  119. Duration           : 1 h 47 min
  120. Bit rate           : 38.5 kb/s
  121. Count of elements        : 2830
  122. Stream size          : 29.7 MiB (0%)
  123. Title            : Spanish-PGS
  124. Language           : Spanish
  125. Default            : No
  126. Forced           : No
  127. Menu
  128. 00:00:00.000         : en:Chapter 1
  129. 00:10:19.369         : en:Chapter 2
  130. 00:20:14.505         : en:Chapter 3
  131. 00:28:48.644         : en:Chapter 4
  132. 00:34:54.968         : en:Chapter 5
  133. 00:41:15.515         : en:Chapter 6
  134. 00:50:20.976         : en:Chapter 7
  135. 00:54:56.460         : en:Chapter 8
  136. 01:04:05.717         : en:Chapter 9
  137. 01:13:02.670         : en:Chapter 10
  138. 01:20:52.473         : en:Chapter 11
  139. 01:27:57.105         : en:Chapter 12
  140. 01:36:45.466         : en:Chapter 13
  141. 01:42:38.527         : en:Chapter 14
复制代码













Love.and.Monsters.2020.2160p.UHD.BluRay.x265.10bit.HDR.DTS-HD.MA.7.1-SWTYBLZ.torrent (83.83 KB, 下载次数: 19)

回复

使用道具 举报

您需要登录后才可以回帖 登录 | 立即注册

本版积分规则

QQ|Archiver|手机版|小黑屋|蓝光电影网

GMT+8, 2024-6-26 07:02 , Processed in 0.070166 second(s), 24 queries .

Powered by Discuz! X3.4

Copyright © 2001-2020, Tencent Cloud.

快速回复 返回顶部 返回列表