找回密码
 立即注册

QQ登录

只需一步,快速开始

查看: 1364|回复: 0

[10bit.HDR] 街头黑帮 Vigilante.1982.2160p.UHD.BluRay.x265.10bit.HDR.DTS-HD.MA.TrueHD.7.1.Atmos-SWTYBLZ 36.73GB

[复制链接]

已抛锚 成长值: 310

0

精华

0

好友

0

听众

管理员

Rank: 9Rank: 9Rank: 9

蓝光币
7041
发表于 2020-12-22 00:15:52 | 显示全部楼层 |阅读模式


译  名 陌头黑帮 / Street Gang
片  名 Vigilante
年  代 1983
产  地 美国
类  别 剧情 / 行动 / 犯罪
语  言 英语
上映日期 1983
IMDb评分6.5/10 from 2809 users
IMDb链接https://www.imdb.com/title/tt0084867
豆瓣评分 0/10 from 0 users
豆瓣链接 https://movie.douban.com/subject/3637711/
片  长 90 分钟
导  演 威廉·拉斯蒂格 William Lustig
编  剧 Richard Vetere
主  演 罗伯特·福斯特 Robert Forster
     弗雷德·威廉森 Fred Williamson
     理查德·布赖特 Richard Bright
     拉特安亚·阿尔达 Rutanya Alda
     卡洛尔·琳蕾 Carol Lynley
     伍迪·斯特罗德 Woody Strode
     乔·斯皮内尔 Joe Spinell
     史蒂夫·詹姆斯 Steve James
     Willie Colón
     Bo Rucker
     Raymond Serra
     Vincent Russo
     Filomena Spagnuolo
     Sal Carollo
     Joseph Carberry
     文森特贝克 Vincent Beck
     彼得·萨瓦奇 Peter Savage
     威廉·拉斯蒂格 William Lustig

标  签 1983 | 犯罪 | 美国电影 | 80s | 美国 | William_Lustig | BDISO | 80年月
简  介
  暂无相关剧情先容
  1. Video
  2. ID             : 1
  3. Format           : HEVC
  4. Format/Info          : High Efficiency Video Coding
  5. Format profile         : Main [email]10@L5.1[/email]@High
  6. HDR format           : SMPTE ST 2086, HDR10 compatible
  7. Codec ID           : V_MPEGH/ISO/HEVC
  8. Duration           : 1 h 29 min
  9. Bit rate           : 50.1 Mb/s
  10. Width            : 3 840 pixels
  11. Height           : 1 606 pixels
  12. Display aspect ratio       : 2.40:1
  13. Frame rate mode        : Constant
  14. Frame rate           : 23.976 (24000/1001/45378) FPS
  15. Color space          : YUV
  16. Chroma subsampling       : 4:2:0 (Type 2)
  17. Bit depth          : 10 bits
  18. Bits/(Pixel*Frame)       : 0.339
  19. Stream size          : 31.3 GiB (86%)
  20. Writing library        : x265 3.0_Au+10-74a8672ea4f7:[Windows][GCC 8.2.1][64 bit] 10bit
  21. Encoding settings        : cpuid=1111039 / frame-threads=6 / numa-pools=40 / wpp / no-pmode / no-pme / no-psnr / no-ssim / log-level=2 / input-csp=1 / input-res=3840x1606 / interlace=0 / total-frames=0 / level-idc=51 / high-tier=1 / uhd-bd=0 / ref=3 / no-allow-non-conformance / repeat-headers / annexb / aud / hrd / info / hash=0 / no-temporal-layers / no-open-gop / min-keyint=1 / keyint=24 / gop-lookahead=0 / bframes=4 / b-adapt=2 / b-pyramid / bframe-bias=0 / rc-lookahead=25 / lookahead-slices=4 / scenecut=40 / radl=0 / no-splice / no-intra-refresh / ctu=64 / min-cu-size=8 / no-rect / no-amp / max-tu-size=32 / tu-inter-depth=1 / tu-intra-depth=1 / limit-tu=0 / rdoq-level=0 / dynamic-rd=0.00 / no-ssim-rd / signhide / no-tskip / nr-intra=0 / nr-inter=0 / no-constrained-intra / strong-intra-smoothing / max-merge=2 / limit-refs=3 / no-limit-modes / me=1 / subme=2 / merange=57 / temporal-mvp / weightp / no-weightb / no-analyze-src-pics / deblock=0:0 / no-sao / no-sao-non-deblock / rd=3 / no-early-skip / rskip / no-fast-intra / no-tskip-fast / no-cu-lossless / no-b-intra / no-splitrd-skip / rdpenalty=0 / psy-rd=2.00 / psy-rdoq=0.00 / no-rd-refine / no-lossless / cbqpoffs=0 / crqpoffs=0 / rc=crf / crf=18.0 / qcomp=0.60 / qpstep=4 / stats-write=0 / stats-read=0 / vbv-maxrate=160000 / vbv-bufsize=160000 / vbv-init=0.9 / crf-max=0.0 / crf-min=0.0 / ipratio=1.40 / pbratio=1.30 / aq-mode=1 / aq-strength=1.00 / cutree / zone-count=0 / no-strict-cbr / qg-size=32 / no-rc-grain / qpmax=69 / qpmin=0 / no-const-vbv / sar=1 / overscan=0 / videoformat=5 / range=0 / colorprim=9 / transfer=16 / colormatrix=9 / chromaloc=1 / chromaloc-top=2 / chromaloc-bottom=2 / display-window=0 / master-display=G(13250,34500)B(7500,3000)R(34000,16000)WP(15635,16450)L(10000000,01) / max-cll=0,0 / min-luma=0 / max-luma=1023 / log2-max-poc-lsb=8 / vui-timing-info / vui-hrd-info / slices=1 / opt-qp-pps / opt-ref-list-length-pps / no-multi-pass-opt-rps / scenecut-bias=0.05 / no-opt-cu-delta-qp / no-aq-motion / hdr / hdr-opt / no-dhdr10-opt / no-idr-recovery-sei / analysis-reuse-level=5 / scale-factor=0 / refine-intra=0 / refine-inter=0 / refine-mv=0 / refine-ctu-distortion=0 / no-limit-sao / ctu-info=0 / no-lowpass-dct / refine-analysis-type=0 / copy-pic=1 / max-ausize-factor=1.0 / no-dynamic-refine / no-single-sei / no-hevc-aq / no-svt / qp-adaptation-range=1.00
  22. Default            : Yes
  23. Forced           : No
  24. Color range          : Limited
  25. Color primaries        : BT.2020
  26. Transfer characteristics     : PQ
  27. Matrix coefficients        : BT.2020 non-constant
  28. Mastering display color primaries  : Display P3
  29. Mastering display luminance    : min: 0.0001 cd/m2, max: 1000 cd/m2

  30. Audio #1
  31. ID             : 2
  32. ID in the original source medium   : 4352 (0x1100)
  33. Format           : MLP FBA 16-ch
  34. Format/Info          : Meridian Lossless Packing FBA with 16-channel presentation
  35. Commercial name        : Dolby TrueHD with Dolby Atmos
  36. Codec ID           : A_TRUEHD
  37. Duration           : 1 h 29 min
  38. Bit rate mode          : Variable
  39. Bit rate           : 3 778 kb/s
  40. Maximum bit rate         : 5 697 kb/s
  41. Channel(s)           : 8 channels
  42. Channel layout         : L R C LFE Ls Rs Lb Rb
  43. Sampling rate          : 48.0 kHz
  44. Frame rate           : 1 200.000 FPS (40 SPF)
  45. Compression mode         : Lossless
  46. Stream size          : 2.36 GiB (6%)
  47. Title            : TrueHD 7.1 Atmos
  48. Language           : English
  49. Default            : Yes
  50. Forced           : No
  51. Original source medium       : Blu-ray
  52. Number of dynamic objects      : 11
  53. Bed channel count        : 1 channel
  54. Bed channel configuration      : LFE

  55. Audio #2
  56. ID             : 3
  57. Format           : DTS XLL
  58. Format/Info          : Digital Theater Systems
  59. Commercial name        : DTS-HD Master Audio
  60. Codec ID           : A_DTS
  61. Duration           : 1 h 29 min
  62. Bit rate mode          : Variable
  63. Bit rate           : 3 812 kb/s
  64. Channel(s)           : 8 channels
  65. Channel layout         : C L R LFE Lb Rb Lss Rss
  66. Sampling rate          : 48.0 kHz
  67. Frame rate           : 93.750 FPS (512 SPF)
  68. Bit depth          : 24 bits
  69. Compression mode         : Lossless
  70. Stream size          : 2.38 GiB (7%)
  71. Title            : DTS-HD MA 7.1
  72. Language           : English
  73. Default            : No
  74. Forced           : No

  75. Audio #3
  76. ID             : 4
  77. ID in the original source medium   : 4352 (0x1100)
  78. Format           : AC-3
  79. Format/Info          : Audio Coding 3
  80. Commercial name        : Dolby Digital
  81. Codec ID           : A_AC3
  82. Duration           : 1 h 29 min
  83. Bit rate mode          : Constant
  84. Bit rate           : 640 kb/s
  85. Channel(s)           : 6 channels
  86. Channel layout         : L R C LFE Ls Rs
  87. Sampling rate          : 48.0 kHz
  88. Frame rate           : 31.250 FPS (1536 SPF)
  89. Compression mode         : Lossy
  90. Stream size          : 410 MiB (1%)
  91. Title            : DD 5.1
  92. Language           : English
  93. Service kind         : Complete Main
  94. Default            : No
  95. Forced           : No
  96. Original source medium       : Blu-ray

  97. Text #1
  98. ID             : 5
  99. Format           : UTF-8
  100. Codec ID           : S_TEXT/UTF8
  101. Codec ID/Info          : UTF-8 Plain Text
  102. Duration           : 1 h 24 min
  103. Bit rate           : 40 b/s
  104. Count of elements        : 717
  105. Stream size          : 25.2 KiB (0%)
  106. Title            : English-SRT
  107. Language           : English
  108. Default            : Yes
  109. Forced           : No

  110. Text #2
  111. ID             : 6
  112. ID in the original source medium   : 4768 (0x12A0)
  113. Format           : PGS
  114. Muxing mode          : zlib
  115. Codec ID           : S_HDMV/PGS
  116. Codec ID/Info          : Picture based subtitle format used on BDs/HD-DVDs
  117. Duration           : 1 h 24 min
  118. Bit rate           : 30.2 kb/s
  119. Count of elements        : 1668
  120. Stream size          : 18.3 MiB (0%)
  121. Title            : English-PGS
  122. Language           : English
  123. Default            : No
  124. Forced           : No
  125. Original source medium       : Blu-ray

  126. Text #3
  127. ID             : 7
  128. ID in the original source medium   : 4769 (0x12A1)
  129. Format           : PGS
  130. Muxing mode          : zlib
  131. Codec ID           : S_HDMV/PGS
  132. Codec ID/Info          : Picture based subtitle format used on BDs/HD-DVDs
  133. Duration           : 1 h 24 min
  134. Bit rate           : 26.8 kb/s
  135. Count of elements        : 1408
  136. Stream size          : 16.3 MiB (0%)
  137. Title            : French-PGS
  138. Language           : French
  139. Default            : No
  140. Forced           : No
  141. Original source medium       : Blu-ray

  142. Text #4
  143. ID             : 8
  144. ID in the original source medium   : 4770 (0x12A2)
  145. Format           : PGS
  146. Muxing mode          : zlib
  147. Codec ID           : S_HDMV/PGS
  148. Codec ID/Info          : Picture based subtitle format used on BDs/HD-DVDs
  149. Duration           : 1 h 24 min
  150. Bit rate           : 26.4 kb/s
  151. Count of elements        : 1384
  152. Stream size          : 16.0 MiB (0%)
  153. Title            : Spanish-PGS
  154. Language           : Spanish
  155. Default            : No
  156. Forced           : No
  157. Original source medium       : Blu-ray

  158. Text #5
  159. ID             : 9
  160. ID in the original source medium   : 4771 (0x12A3)
  161. Format           : PGS
  162. Muxing mode          : zlib
  163. Codec ID           : S_HDMV/PGS
  164. Codec ID/Info          : Picture based subtitle format used on BDs/HD-DVDs
  165. Duration           : 1 h 24 min
  166. Bit rate           : 23.8 kb/s
  167. Count of elements        : 1404
  168. Stream size          : 14.4 MiB (0%)
  169. Title            : Portuguese-PGS
  170. Language           : Portuguese
  171. Default            : No
  172. Forced           : No
  173. Original source medium       : Blu-ray

  174. Menu
  175. 00:00:00.000         : en:Chapter 01
  176. 00:01:47.065         : en:Chapter 02
  177. 00:03:30.084         : en:Chapter 03
  178. 00:07:58.186         : en:Chapter 04
  179. 00:12:30.750         : en:Chapter 05
  180. 00:18:45.749         : en:Chapter 06
  181. 00:24:30.469         : en:Chapter 07
  182. 00:30:22.821         : en:Chapter 08
  183. 00:35:46.352         : en:Chapter 09
  184. 00:43:02.580         : en:Chapter 10
  185. 00:51:38.095         : en:Chapter 11
  186. 00:55:45.258         : en:Chapter 12
  187. 01:01:56.713         : en:Chapter 13
  188. 01:11:08.264         : en:Chapter 14
  189. 01:16:38.176         : en:Chapter 15
  190. 01:21:58.872         : en:Chapter 16
  191. 01:25:54.149         : en:Chapter 17
复制代码

















Vigilante.1982.2160p.UHD.BluRay.x265.10bit.HDR.DTS-HD.MA.TrueHD.7.1.Atmos-SWTYBLZ.torrent (92.47 KB, 下载次数: 2)


回复

使用道具 举报

您需要登录后才可以回帖 登录 | 立即注册

本版积分规则

QQ|Archiver|手机版|小黑屋|蓝光电影网

GMT+8, 2024-6-26 06:28 , Processed in 0.052590 second(s), 24 queries .

Powered by Discuz! X3.4

Copyright © 2001-2020, Tencent Cloud.

快速回复 返回顶部 返回列表