找回密码
 立即注册

QQ登录

只需一步,快速开始

查看: 1159|回复: 6

[其他] 暴力之夜 Violent.Night.2022.2160p.MA.WEB-DL.x265.10bit.SDR.DDP5.1.Atmos-FLUX 19.85GB

[复制链接]

0

精华

0

好友

2

听众

新手上路

Rank: 2

蓝光币
5
发表于 2022-12-22 08:00:18 | 显示全部楼层 |阅读模式
[img][/img]

◎标  题 暴力之夜
◎译  名 暴戾夜(台) / 杀神夜(港)
◎片  名 Violent Night
◎年  代 2022
◎产  地 美国
◎类  别 喜剧 / 动作 / 惊悚 / 恐怖 / 犯罪
◎语  言 英语
◎上映日期 2022-12-02(美国)
◎IMDb评分 7/10 (782人评价)
◎IMDb链接 https://www.imdb.com/title/tt12003946/
◎豆瓣链接 https://movie.douban.com/subject/35899025/
◎片  长 101分钟
◎导  演 托米·维尔科拉 Tommy Wirkola
◎编  剧 帕特里克·凯西 Patrick Casey
       乔什·米勒 Josh Miller
       Josh Miller Josh Miller
       Pat Casey Pat Casey
◎演  员 大卫·哈伯 David Harbour
       约翰·雷吉扎莫 John Leguizamo
       比佛莉·德安姬罗 Beverly D'Angelo
       凯姆·吉甘戴 Cam Gigandet
       布兰登·弗莱彻 Brendan Fletcher
       艾迪·帕特森 Edi Patterson
       阿历克斯·哈赛尔 Alex Hassell
       亚历克西斯·拉奥特 Alexis Louder
       麦克·多普德 Mike Dopud
       亚历山大·埃利奥特 Alexander Elliot
       斯蒂芬妮·西 Stephanie Sy
       安德烈·埃里克森 André Eriksen
       埃里克·阿塔瓦尔 Erik Athavale
       蜜特拉·苏里 Mitra Suri
◎简  介

  一支佣兵团队在圣诞夜突袭一栋富有人家的豪宅,并且挟持豪宅内的所有人为人质时,他们竟然遇到一个完全意想不到的强劲对手:圣诞老人(大卫·哈伯 饰),而且他会让他们知道圣诞老人并不是一个面容慈祥、心地善良的圣人。
  1. Video
  2. ID                                       : 1
  3. Format                                   : HEVC
  4. Format/Info                              : High Efficiency Video Coding
  5. Format profile                           : Main [email protected]@High
  6. Codec ID                                 : V_MPEGH/ISO/HEVC
  7. Duration                                 : 1 h 51 min
  8. Bit rate                                 : 24.7 Mb/s
  9. Width                                    : 3 840 pixels
  10. Height                                   : 2 160 pixels
  11. Display aspect ratio                     : 16:9
  12. Frame rate mode                          : Constant
  13. Frame rate                               : 23.976 (24000/1001/189150) FPS
  14. Color space                              : YUV
  15. Chroma subsampling                       : 4:2:0 (Type 2)
  16. Bit depth                                : 10 bits
  17. Bits/(Pixel*Frame)                       : 0.124
  18. Stream size                              : 19.3 GiB (97%)
  19. Default                                  : No
  20. Forced                                   : No
  21. Color range                              : Limited
  22. Color primaries                          : BT.709
  23. Transfer characteristics                 : BT.709
  24. Matrix coefficients                      : BT.709

  25. Audio
  26. ID                                       : 2
  27. Format                                   : E-AC-3 JOC
  28. Format/Info                              : Enhanced AC-3 with Joint Object Coding
  29. Commercial name                          : Dolby Digital Plus with Dolby Atmos
  30. Codec ID                                 : A_EAC3
  31. Duration                                 : 1 h 51 min
  32. Bit rate mode                            : Constant
  33. Bit rate                                 : 768 kb/s
  34. Channel(s)                               : 6 channels
  35. Channel layout                           : L R C LFE Ls Rs
  36. Sampling rate                            : 48.0 kHz
  37. Frame rate                               : 31.250 FPS (1536 SPF)
  38. Compression mode                         : Lossy
  39. Delay relative to video                  : 83 ms
  40. Stream size                              : 613 MiB (3%)
  41. Language                                 : English
  42. Service kind                             : Complete Main
  43. Default                                  : Yes
  44. Forced                                   : No
  45. Complexity index                         : 16
  46. Number of dynamic objects                : 15
  47. Bed channel count                        : 1 channel
  48. Bed channel configuration                : LFE

  49. Text #1
  50. ID                                       : 3
  51. Format                                   : UTF-8
  52. Codec ID                                 : S_TEXT/UTF8
  53. Codec ID/Info                            : UTF-8 Plain Text
  54. Duration                                 : 1 h 46 min
  55. Bit rate                                 : 51 b/s
  56. Frame rate                               : 0.236 FPS
  57. Count of elements                        : 1510
  58. Stream size                              : 40.3 KiB (0%)
  59. Language                                 : English
  60. Default                                  : No
  61. Forced                                   : No

  62. Text #2
  63. ID                                       : 4
  64. Format                                   : UTF-8
  65. Codec ID                                 : S_TEXT/UTF8
  66. Codec ID/Info                            : UTF-8 Plain Text
  67. Duration                                 : 1 h 51 min
  68. Bit rate                                 : 68 b/s
  69. Frame rate                               : 0.318 FPS
  70. Count of elements                        : 2132
  71. Stream size                              : 56.3 KiB (0%)
  72. Title                                    : SDH
  73. Language                                 : English
  74. Default                                  : No
  75. Forced                                   : No

  76. Text #3
  77. ID                                       : 5
  78. Format                                   : UTF-8
  79. Codec ID                                 : S_TEXT/UTF8
  80. Codec ID/Info                            : UTF-8 Plain Text
  81. Duration                                 : 1 h 50 min
  82. Bit rate                                 : 47 b/s
  83. Frame rate                               : 0.198 FPS
  84. Count of elements                        : 1314
  85. Stream size                              : 38.5 KiB (0%)
  86. Title                                    : Latin American
  87. Language                                 : Spanish
  88. Default                                  : No
  89. Forced                                   : No

  90. Menu
  91. 00:00:00.000                             : en:Chapter 1
  92. 00:04:52.000                             : en:Chapter 2
  93. 00:07:55.000                             : en:Chapter 3
  94. 00:13:14.000                             : en:Chapter 4
  95. 00:17:56.000                             : en:Chapter 5
  96. 00:21:24.000                             : en:Chapter 6
  97. 00:29:56.000                             : en:Chapter 7
  98. 00:33:29.000                             : en:Chapter 8
  99. 00:38:42.000                             : en:Chapter 9
  100. 00:44:14.000                             : en:Chapter 10
  101. 00:52:58.000                             : en:Chapter 11
  102. 00:58:52.000                             : en:Chapter 12
  103. 01:09:29.000                             : en:Chapter 13
  104. 01:15:18.000                             : en:Chapter 14
  105. 01:20:01.000                             : en:Chapter 15
  106. 01:24:39.000                             : en:Chapter 16
  107. 01:28:12.000                             : en:Chapter 17
  108. 01:32:52.000                             : en:Chapter 18
  109. 01:37:49.000                             : en:Chapter 19
  110. 01:45:32.000                             : en:Chapter 20
复制代码




                                       
                                       

                                       
                                       
                                       




Violent.Night.2022.2160p.MA.WEB-DL.x265.10bit.SDR.DDP5.1.Atmos-FLUX.torrent (25.47 KB, 下载次数: 11)
回复

使用道具 举报

0

精华

0

好友

3

听众

新手上路

Rank: 1

蓝光币
0
发表于 2022-12-27 10:07:31 | 显示全部楼层
不错的电影,值得下载
回复

使用道具 举报

0

精华

0

好友

3

听众

新手上路

Rank: 1

蓝光币
0
发表于 2022-12-27 10:07:49 | 显示全部楼层
值得下载
回复

使用道具 举报

0

精华

0

好友

3

听众

新手上路

Rank: 1

蓝光币
0
发表于 2023-1-7 21:15:56 | 显示全部楼层
WEB版不行,等蓝光版。
回复

使用道具 举报

0

精华

0

好友

3

听众

新手上路

Rank: 1

蓝光币
0
发表于 2023-1-7 21:16:38 | 显示全部楼层
等蓝光版本下载,
回复

使用道具 举报

0

精华

0

好友

2

听众

新手上路

Rank: 1

蓝光币
0
发表于 2023-1-13 02:14:05 | 显示全部楼层
感谢分享
回复

使用道具 举报

0

精华

0

好友

2

听众

新手上路

Rank: 1

蓝光币
0
发表于 2023-2-2 21:22:15 | 显示全部楼层
不错不错
回复

使用道具 举报

您需要登录后才可以回帖 登录 | 立即注册

本版积分规则

QQ|Archiver|手机版|小黑屋|蓝光电影网

GMT+8, 2023-3-25 13:19 , Processed in 0.060615 second(s), 28 queries .

Powered by Discuz! X3.4

Copyright © 2001-2020, Tencent Cloud.

快速回复 返回顶部 返回列表