找回密码
 立即注册

QQ登录

只需一步,快速开始

查看: 255|回复: 0

[其他] 养鬼吃人 Hellraiser.2022.2160p.HULU.WEB-DL.x265.10bit.SDR.DDP5.1-NAISU 12.77GB

[复制链接]

0

精华

0

好友

2

听众

新手上路

Rank: 2

蓝光币
5
发表于 2022-10-9 07:53:59 | 显示全部楼层 |阅读模式
[img][/img]

◎标  题 养鬼吃人
◎译  名 新养鬼吃人
◎片  名 Hellraiser
◎年  代 2022
◎产  地 美国
◎类  别 悬疑 / 惊悚 / 恐怖
◎语  言 英语
◎上映日期 2022-10-07(美国网络)
◎IMDb评分 6/10 (165人评价)
◎IMDb链接 https://www.imdb.com/title/tt0887261/
◎豆瓣链接 https://movie.douban.com/subject/2042941/
◎导  演 大卫·布鲁克纳 David Bruckner
◎编  剧 本·柯林斯 Ben Collins
       卢克·皮厄特罗斯基 Luke Piotrowski
       大卫·S·高耶 David S. Goyer
       克莱夫·巴克 Clive Barker
       泰迪·特南鲍姆 Teddy Tenenbaum
◎演  员 杰米·克莱顿 Jamie Clayton
       高兰·维斯耶克 Goran Visnjic
       西娅姆·阿巴斯 Hiam Abbass
       布兰登·弗林 Brandon Flynn
       德鲁·斯塔基 Drew Starkey
       敖德萨·阿德隆 Odessa Adlon
       赛琳娜·露 Selina Lo
       伊芙·海因德 Aoife Hinds
       普里德拉格·比耶拉克 Predrag Bjelac
       亚当·费森 Adam Faison
       尼古拉·肯特 Nikola Kent
       伊沃娜·库斯图迪奇 Ivona Kustudic
       凯蒂·戈伊科维奇 Katarina Gojkovic
       Miodrag Milovanov Miodrag Milovanov
       克莱夫·巴克 Clive Barker
       大卫·S·高耶 David S. Goyer
       莫米尔卡·拜洛维奇 Momirka Bailovic
◎简  介

  经典恐怖片《养鬼吃人/猛鬼追魂》将拍新版电影,近日定下导演:大卫·布鲁克纳(《黑森灵》《鬼作秀》)。                                    
                                原版讲述男子Frank不慎打开了另一个次元,被著名恶鬼“针头鬼”带领的魔鬼Cenobites所杀。而多年后,Frank的哥哥Larry带着妻子Julia,搬到了他已故的妈妈的老宅中,因为一次意外,Larry的血让Frank的尸体重生,也让恶鬼降临……后成了一个系列。新版将从系列第一部开始重启,据称将在忠于原版的基础上有进化。                                    
                                Spyglass媒体公司打造。Ben Collins和Luke Piotrowski编剧,大卫·S·高耶(《蝙蝠侠:黑暗骑士三部曲》《刀锋战士》)提供故事并参与制片,这个导演、编剧、制片组合也就是今年圣丹斯电影节的热门恐怖片《鬼屋》的班底。
  1. Video
  2. ID                                       : 1
  3. Format                                   : HEVC
  4. Format/Info                              : High Efficiency Video Coding
  5. Format profile                           : Main [email protected]@Main
  6. Codec ID                                 : V_MPEGH/ISO/HEVC
  7. Duration                                 : 2 h 0 min
  8. Bit rate                                 : 14.6 Mb/s
  9. Width                                    : 3 840 pixels
  10. Height                                   : 2 160 pixels
  11. Display aspect ratio                     : 16:9
  12. Frame rate mode                          : Constant
  13. Frame rate                               : 23.976 (24000/1001/189150) FPS
  14. Color space                              : YUV
  15. Chroma subsampling                       : 4:2:0
  16. Bit depth                                : 10 bits
  17. Bits/(Pixel*Frame)                       : 0.073
  18. Stream size                              : 12.3 GiB (96%)
  19. Default                                  : Yes
  20. Forced                                   : No
  21. Audio
  22. ID                                       : 2
  23. Format                                   : E-AC-3
  24. Format/Info                              : Enhanced AC-3
  25. Commercial name                          : Dolby Digital Plus
  26. Codec ID                                 : A_EAC3
  27. Duration                                 : 2 h 0 min
  28. Bit rate mode                            : Constant
  29. Bit rate                                 : 256 kb/s
  30. Channel(s)                               : 6 channels
  31. Channel layout                           : L R C LFE Ls Rs
  32. Sampling rate                            : 48.0 kHz
  33. Frame rate                               : 31.250 FPS (1536 SPF)
  34. Compression mode                         : Lossy
  35. Stream size                              : 221 MiB (2%)
  36. Language                                 : English
  37. Service kind                             : Complete Main
  38. Default                                  : Yes
  39. Forced                                   : No
  40. Text #1
  41. ID                                       : 3
  42. Format                                   : UTF-8
  43. Codec ID                                 : S_TEXT/UTF8
  44. Codec ID/Info                            : UTF-8 Plain Text
  45. Title                                    : English [SDH]
  46. Language                                 : English
  47. Default                                  : No
  48. Forced                                   : No
  49. Text #2
  50. ID                                       : 4
  51. Format                                   : UTF-8
  52. Codec ID                                 : S_TEXT/UTF8
  53. Codec ID/Info                            : UTF-8 Plain Text
  54. Title                                    : Spanish [SDH]
  55. Language                                 : Spanish
  56. Default                                  : No
  57. Forced                                   : No
复制代码




                                       
                                       

                                       
                                       
                                       




Hellraiser.2022.2160p.HULU.WEB-DL.x265.10bit.SDR.DDP5.1-NAISU.torrent (16.59 KB, 下载次数: 6)
回复

使用道具 举报

您需要登录后才可以回帖 登录 | 立即注册

本版积分规则

QQ|Archiver|手机版|小黑屋|蓝光电影网

GMT+8, 2022-11-30 09:35 , Processed in 0.061537 second(s), 28 queries .

Powered by Discuz! X3.4

Copyright © 2001-2020, Tencent Cloud.

快速回复 返回顶部 返回列表