找回密码
 立即注册

QQ登录

只需一步,快速开始

查看: 34|回复: 0

[2160p-WEB] 隐形侠[国语配音/中文字幕].The.Invisible.Man.2022.2160p.WEB-DL.H265.AAC-MOMOWEB 2.40GB

[复制链接]

0

精华

0

好友

2

听众

新手上路

Rank: 2

蓝光币
5
发表于 4 天前 | 显示全部楼层 |阅读模式


◎标  题 隐形侠
◎年  代 2022
◎产  地 中国大陆
◎类  别 喜剧 / 动作 / 科幻
◎语  言 汉语普通话
◎上映日期 2022-08-03(中国大陆)
◎IMDb链接 https://www.imdb.com/title//
◎豆瓣链接 https://movie.douban.com/subject/35135468/
◎导  演 胡戈 Ge Hu
◎编  剧 胡戈 Ge Hu
◎演  员 李晨浩 Leon Lee
       魏笑 Xiao Wei
       巩汉林 Han-Lin Gong
  1. ##### MediaInfo ######
  2. General
  3. Unique ID                                : 75178078989260868550217276245612297466 (0x388EC5771BA0B4744F5E951FE131FCFA)
  4. Complete name                            : The.Invisible.Man.2022.2160p.WEB-DL.H265.AAC-MOMOWEB.mkv
  5. Format                                   : Matroska
  6. Format version                           : Version 4
  7. File size                                : 2.39 GiB
  8. Duration                                 : 1 h 17 min
  9. Overall bit rate                         : 4 440 kb/s
  10. Encoded date                             : UTC 2022-08-03 02:22:26
  11. Writing application                      : mkvmerge v58.0.0 ('Supper's Ready') 64-bit
  12. Writing library                          : libebml v1.4.2 + libmatroska v1.6.4
  13. Video
  14. ID                                       : 1
  15. Format                                   : HEVC
  16. Format/Info                              : High Efficiency Video Coding
  17. Format profile                           : Main@L5@Main
  18. Codec ID                                 : V_MPEGH/ISO/HEVC
  19. Duration                                 : 1 h 17 min
  20. Bit rate                                 : 4 312 kb/s
  21. Width                                    : 3 840 pixels
  22. Height                                   : 1 628 pixels
  23. Display aspect ratio                     : 2.35:1
  24. Frame rate mode                          : Constant
  25. Frame rate                               : 25.000 FPS
  26. Color space                              : YUV
  27. Chroma subsampling                       : 4:2:0
  28. Bit depth                                : 8 bits
  29. Bits/(Pixel*Frame)                       : 0.028
  30. Stream size                              : 2.33 GiB (97%)
  31. Language                                 : Chinese
  32. Default                                  : Yes
  33. Forced                                   : No
  34. Color range                              : Limited
  35. Color primaries                          : BT.709
  36. Transfer characteristics                 : BT.709
  37. Matrix coefficients                      : BT.709
  38. Audio
  39. ID                                       : 2
  40. Format                                   : AAC LC
  41. Format/Info                              : Advanced Audio Codec Low Complexity
  42. Codec ID                                 : A_AAC-2
  43. Duration                                 : 1 h 17 min
  44. Bit rate                                 : 125 kb/s
  45. Channel(s)                               : 2 channels
  46. Channel layout                           : L R
  47. Sampling rate                            : 48.0 kHz
  48. Frame rate                               : 46.875 FPS (1024 SPF)
  49. Compression mode                         : Lossy
  50. Delay relative to video                  : -42 ms
  51. Stream size                              : 69.2 MiB (3%)
  52. Language                                 : Chinese
  53. Default                                  : Yes
  54. Forced                                   : No
复制代码

















推荐请使用qBittorrent,utorrent,transmission等标准BT软件下载!以获取最快速度。拜托保种!





隐形侠[国语配音 中文字幕].The.Invisible.Man.2022.2160p.WEB-DL.H265.AAC-MOMOWEB.torrent (6.93 KB, 下载次数: 0)
回复

使用道具 举报

您需要登录后才可以回帖 登录 | 立即注册

本版积分规则

QQ|Archiver|手机版|小黑屋|蓝光电影网

GMT+8, 2022-8-8 17:38 , Processed in 0.052108 second(s), 24 queries .

Powered by Discuz! X3.4

Copyright © 2001-2020, Tencent Cloud.

快速回复 返回顶部 返回列表