找回密码
 立即注册

QQ登录

只需一步,快速开始

查看: 294|回复: 0

[其他] 球鞋灰姑娘 Sneakerella.2022.2160p.DSNP.WEB-DL.x265.10bit.HDR.DDP5.1.Atmos-FLUX 13.35GB

[复制链接]

0

精华

0

好友

2

听众

新手上路

Rank: 2

蓝光币
5
发表于 2022-5-18 07:58:31 | 显示全部楼层 |阅读模式


◎译  名 球鞋灰姑娘 / 球鞋奇缘(台)
◎片  名 Sneakerella
◎年  代 2022
◎产  地 美国
◎类  别 喜剧 / 歌舞
◎语  言 英语
◎上映日期 2022-05-13(美国网络)
◎IMDb链接 https://www.imdb.com/title/tt10160886/
◎豆瓣链接 https://movie.douban.com/subject/35398570/
◎导  演 伊丽莎白·艾伦 Elizabeth Allen (id:1277038)
◎编  剧 戴维·莱特 David Light (id:1393681)
       约瑟夫·拉索 Joseph Raso (id:1393682)
       George Gore II George Gore II (id:1095568)
       塔马拉·切斯特那 Tamara Chestna (id:1453139)
◎演  员 乔森·雅各布 Chosen Jacobs (id:1380978)
       莱克西·安德伍德 Lexi Underwood (id:1434385)
       科尔顿·斯图尔特 Kolton Stewart (id:1430831)
       罗维娜·亚瓦里 Lovina Yavari (id:1409837)
       约翰·萨利 John Salley (id:1146754)
       塔拉·尼科迪莫 Tara Nicodemo (id:1394629)
       洛根·汤普森 Logan Thompson (id:1380981)
       迪文·妮科塔 Devyn Nekoda (id:1356899)
       罗伯特·J·塔维纳 Robert J. Tavenor (id:1199493)
       丹尼尔·基思·莫里森 Daniel Keith Morrison (id:1441662)
       Qasim Khan Qasim Khan (id:1205557)
◎简  介

  A modern twist on Cinderella set in New York City's Sneaker culture.
  1. Video
  2. ID                                       : 1
  3. Format                                   : HEVC
  4. Format/Info                              : High Efficiency Video Coding
  5. Format profile                           : Main [email protected]@High
  6. HDR format                               : SMPTE ST 2086, HDR10 compatible
  7. Codec ID                                 : V_MPEGH/ISO/HEVC
  8. Duration                                 : 1 h 50 min
  9. Bit rate                                 : 16.5 Mb/s
  10. Width                                    : 3 840 pixels
  11. Height                                   : 2 160 pixels
  12. Display aspect ratio                     : 16:9
  13. Frame rate mode                          : Constant
  14. Frame rate                               : 23.976 (24000/1001/189150) FPS
  15. Color space                              : YUV
  16. Chroma subsampling                       : 4:2:0
  17. Bit depth                                : 10 bits
  18. Bits/(Pixel*Frame)                       : 0.083
  19. Stream size                              : 12.7 GiB (96%)
  20. Default                                  : No
  21. Forced                                   : No
  22. Color range                              : Limited
  23. Color primaries                          : BT.2020
  24. Transfer characteristics                 : PQ
  25. Matrix coefficients                      : BT.2020 non-constant
  26. Mastering display color primaries        : Display P3
  27. Mastering display luminance              : min: 0.0001 cd/m2, max: 1000 cd/m2
  28. Audio
  29. ID                                       : 2
  30. Format                                   : E-AC-3 JOC
  31. Format/Info                              : Enhanced AC-3 with Joint Object Coding
  32. Commercial name                          : Dolby Digital Plus with Dolby Atmos
  33. Codec ID                                 : A_EAC3
  34. Duration                                 : 1 h 50 min
  35. Bit rate mode                            : Constant
  36. Bit rate                                 : 768 kb/s
  37. Channel(s)                               : 6 channels
  38. Channel layout                           : L R C LFE Ls Rs
  39. Sampling rate                            : 48.0 kHz
  40. Frame rate                               : 31.250 FPS (1536 SPF)
  41. Compression mode                         : Lossy
  42. Stream size                              : 609 MiB (4%)
  43. Language                                 : English
  44. Service kind                             : Complete Main
  45. Default                                  : No
  46. Forced                                   : No
  47. Complexity index                         : 16
  48. Number of dynamic objects                : 15
  49. Bed channel count                        : 1 channel
  50. Bed channel configuration                : LFE
  51. Text #1
  52. ID                                       : 3
  53. Format                                   : UTF-8
  54. Codec ID                                 : S_TEXT/UTF8
  55. Codec ID/Info                            : UTF-8 Plain Text
  56. Duration                                 : 1 h 49 min
  57. Bit rate                                 : 67 b/s
  58. Count of elements                        : 1525
  59. Stream size                              : 53.7 KiB (0%)
  60. Language                                 : English
  61. Default                                  : No
  62. Forced                                   : No
  63. Text #2
  64. ID                                       : 4
  65. Format                                   : UTF-8
  66. Codec ID                                 : S_TEXT/UTF8
  67. Codec ID/Info                            : UTF-8 Plain Text
  68. Duration                                 : 1 h 50 min
  69. Bit rate                                 : 109 b/s
  70. Count of elements                        : 2185
  71. Stream size                              : 88.4 KiB (0%)
  72. Title                                    : SDH
  73. Language                                 : English
  74. Default                                  : No
  75. Forced                                   : No
  76. Text #3
  77. ID                                       : 5
  78. Format                                   : UTF-8
  79. Codec ID                                 : S_TEXT/UTF8
  80. Codec ID/Info                            : UTF-8 Plain Text
  81. Duration                                 : 1 h 50 min
  82. Bit rate                                 : 79 b/s
  83. Count of elements                        : 2018
  84. Stream size                              : 64.6 KiB (0%)
  85. Title                                    : Hong Kong
  86. Language                                 : Chinese
  87. Default                                  : No
  88. Forced                                   : No
  89. Text #4
  90. ID                                       : 6
  91. Format                                   : UTF-8
  92. Codec ID                                 : S_TEXT/UTF8
  93. Codec ID/Info                            : UTF-8 Plain Text
  94. Duration                                 : 1 h 50 min
  95. Bit rate                                 : 81 b/s
  96. Count of elements                        : 2024
  97. Stream size                              : 66.4 KiB (0%)
  98. Title                                    : Simplified
  99. Language                                 : Chinese
  100. Default                                  : No
  101. Forced                                   : No
  102. Text #5
  103. ID                                       : 7
  104. Format                                   : UTF-8
  105. Codec ID                                 : S_TEXT/UTF8
  106. Codec ID/Info                            : UTF-8 Plain Text
  107. Duration                                 : 1 h 50 min
  108. Bit rate                                 : 89 b/s
  109. Count of elements                        : 2011
  110. Stream size                              : 72.3 KiB (0%)
  111. Title                                    : Traditional
  112. Language                                 : Chinese
  113. Default                                  : No
  114. Forced                                   : No
  115. Text #6
  116. ID                                       : 8
  117. Format                                   : UTF-8
  118. Codec ID                                 : S_TEXT/UTF8
  119. Codec ID/Info                            : UTF-8 Plain Text
  120. Duration                                 : 1 h 50 min
  121. Bit rate                                 : 90 b/s
  122. Count of elements                        : 1996
  123. Stream size                              : 73.0 KiB (0%)
  124. Language                                 : Danish
  125. Default                                  : No
  126. Forced                                   : No
  127. Text #7
  128. ID                                       : 9
  129. Format                                   : UTF-8
  130. Codec ID                                 : S_TEXT/UTF8
  131. Codec ID/Info                            : UTF-8 Plain Text
  132. Duration                                 : 1 h 50 min
  133. Bit rate                                 : 81 b/s
  134. Count of elements                        : 1925
  135. Stream size                              : 66.0 KiB (0%)
  136. Language                                 : German
  137. Default                                  : No
  138. Forced                                   : No
  139. Text #8
  140. ID                                       : 10
  141. Format                                   : UTF-8
  142. Codec ID                                 : S_TEXT/UTF8
  143. Codec ID/Info                            : UTF-8 Plain Text
  144. Duration                                 : 1 h 50 min
  145. Bit rate                                 : 82 b/s
  146. Count of elements                        : 1748
  147. Stream size                              : 66.5 KiB (0%)
  148. Title                                    : Latin American
  149. Language                                 : Spanish
  150. Default                                  : No
  151. Forced                                   : No
  152. Text #9
  153. ID                                       : 11
  154. Format                                   : UTF-8
  155. Codec ID                                 : S_TEXT/UTF8
  156. Codec ID/Info                            : UTF-8 Plain Text
  157. Duration                                 : 1 h 50 min
  158. Bit rate                                 : 79 b/s
  159. Count of elements                        : 1971
  160. Stream size                              : 64.4 KiB (0%)
  161. Title                                    : European
  162. Language                                 : Spanish
  163. Default                                  : No
  164. Forced                                   : No
  165. Text #10
  166. ID                                       : 12
  167. Format                                   : UTF-8
  168. Codec ID                                 : S_TEXT/UTF8
  169. Codec ID/Info                            : UTF-8 Plain Text
  170. Duration                                 : 1 h 50 min
  171. Bit rate                                 : 56 b/s
  172. Count of elements                        : 1503
  173. Stream size                              : 45.6 KiB (0%)
  174. Language                                 : Finnish
  175. Default                                  : No
  176. Forced                                   : No
  177. Text #11
  178. ID                                       : 13
  179. Format                                   : UTF-8
  180. Codec ID                                 : S_TEXT/UTF8
  181. Codec ID/Info                            : UTF-8 Plain Text
  182. Duration                                 : 1 h 50 min
  183. Bit rate                                 : 86 b/s
  184. Count of elements                        : 1981
  185. Stream size                              : 69.8 KiB (0%)
  186. Language                                 : French
  187. Default                                  : No
  188. Forced                                   : No
  189. Text #12
  190. ID                                       : 14
  191. Format                                   : UTF-8
  192. Codec ID                                 : S_TEXT/UTF8
  193. Codec ID/Info                            : UTF-8 Plain Text
  194. Duration                                 : 1 h 50 min
  195. Bit rate                                 : 143 b/s
  196. Count of elements                        : 1984
  197. Stream size                              : 117 KiB (0%)
  198. Language                                 : Greek
  199. Default                                  : No
  200. Forced                                   : No
  201. Text #13
  202. ID                                       : 15
  203. Format                                   : UTF-8
  204. Codec ID                                 : S_TEXT/UTF8
  205. Codec ID/Info                            : UTF-8 Plain Text
  206. Duration                                 : 1 h 50 min
  207. Bit rate                                 : 84 b/s
  208. Count of elements                        : 1986
  209. Stream size                              : 68.8 KiB (0%)
  210. Language                                 : Italian
  211. Default                                  : No
  212. Forced                                   : No
  213. Text #14
  214. ID                                       : 16
  215. Format                                   : UTF-8
  216. Codec ID                                 : S_TEXT/UTF8
  217. Codec ID/Info                            : UTF-8 Plain Text
  218. Duration                                 : 1 h 50 min
  219. Bit rate                                 : 78 b/s
  220. Count of elements                        : 2042
  221. Stream size                              : 63.5 KiB (0%)
  222. Language                                 : Japanese
  223. Default                                  : No
  224. Forced                                   : No
  225. Text #15
  226. ID                                       : 17
  227. Format                                   : UTF-8
  228. Codec ID                                 : S_TEXT/UTF8
  229. Codec ID/Info                            : UTF-8 Plain Text
  230. Duration                                 : 1 h 50 min
  231. Bit rate                                 : 88 b/s
  232. Count of elements                        : 1993
  233. Stream size                              : 71.9 KiB (0%)
  234. Language                                 : Korean
  235. Default                                  : No
  236. Forced                                   : No
  237. Text #16
  238. ID                                       : 18
  239. Format                                   : UTF-8
  240. Codec ID                                 : S_TEXT/UTF8
  241. Codec ID/Info                            : UTF-8 Plain Text
  242. Duration                                 : 1 h 50 min
  243. Bit rate                                 : 83 b/s
  244. Count of elements                        : 1974
  245. Stream size                              : 67.9 KiB (0%)
  246. Language                                 : Hungarian
  247. Default                                  : No
  248. Forced                                   : No
  249. Text #17
  250. ID                                       : 19
  251. Format                                   : UTF-8
  252. Codec ID                                 : S_TEXT/UTF8
  253. Codec ID/Info                            : UTF-8 Plain Text
  254. Duration                                 : 1 h 50 min
  255. Bit rate                                 : 78 b/s
  256. Count of elements                        : 1849
  257. Stream size                              : 63.9 KiB (0%)
  258. Language                                 : Dutch
  259. Default                                  : No
  260. Forced                                   : No
  261. Text #18
  262. ID                                       : 20
  263. Format                                   : UTF-8
  264. Codec ID                                 : S_TEXT/UTF8
  265. Codec ID/Info                            : UTF-8 Plain Text
  266. Duration                                 : 1 h 50 min
  267. Bit rate                                 : 83 b/s
  268. Count of elements                        : 1790
  269. Stream size                              : 67.4 KiB (0%)
  270. Language                                 : Norwegian
  271. Default                                  : No
  272. Forced                                   : No
  273. Text #19
  274. ID                                       : 21
  275. Format                                   : UTF-8
  276. Codec ID                                 : S_TEXT/UTF8
  277. Codec ID/Info                            : UTF-8 Plain Text
  278. Duration                                 : 1 h 50 min
  279. Bit rate                                 : 83 b/s
  280. Count of elements                        : 1981
  281. Stream size                              : 67.4 KiB (0%)
  282. Language                                 : Polish
  283. Default                                  : No
  284. Forced                                   : No
  285. Text #20
  286. ID                                       : 22
  287. Format                                   : UTF-8
  288. Codec ID                                 : S_TEXT/UTF8
  289. Codec ID/Info                            : UTF-8 Plain Text
  290. Duration                                 : 1 h 50 min
  291. Bit rate                                 : 83 b/s
  292. Count of elements                        : 1986
  293. Stream size                              : 67.9 KiB (0%)
  294. Language                                 : Portuguese
  295. Default                                  : No
  296. Forced                                   : No
  297. Text #21
  298. ID                                       : 23
  299. Format                                   : UTF-8
  300. Codec ID                                 : S_TEXT/UTF8
  301. Codec ID/Info                            : UTF-8 Plain Text
  302. Duration                                 : 1 h 50 min
  303. Bit rate                                 : 79 b/s
  304. Count of elements                        : 1986
  305. Stream size                              : 64.7 KiB (0%)
  306. Title                                    : Brazilian
  307. Language                                 : Portuguese
  308. Default                                  : No
  309. Forced                                   : No
  310. Text #22
  311. ID                                       : 24
  312. Format                                   : UTF-8
  313. Codec ID                                 : S_TEXT/UTF8
  314. Codec ID/Info                            : UTF-8 Plain Text
  315. Duration                                 : 1 h 50 min
  316. Bit rate                                 : 78 b/s
  317. Count of elements                        : 1770
  318. Stream size                              : 63.8 KiB (0%)
  319. Language                                 : Romanian
  320. Default                                  : No
  321. Forced                                   : No
  322. Text #23
  323. ID                                       : 25
  324. Format                                   : UTF-8
  325. Codec ID                                 : S_TEXT/UTF8
  326. Codec ID/Info                            : UTF-8 Plain Text
  327. Duration                                 : 1 h 50 min
  328. Bit rate                                 : 86 b/s
  329. Count of elements                        : 1969
  330. Stream size                              : 70.5 KiB (0%)
  331. Language                                 : Slovak
  332. Default                                  : No
  333. Forced                                   : No
  334. Text #24
  335. ID                                       : 26
  336. Format                                   : UTF-8
  337. Codec ID                                 : S_TEXT/UTF8
  338. Codec ID/Info                            : UTF-8 Plain Text
  339. Duration                                 : 1 h 50 min
  340. Bit rate                                 : 85 b/s
  341. Count of elements                        : 1942
  342. Stream size                              : 69.3 KiB (0%)
  343. Language                                 : Swedish
  344. Default                                  : No
  345. Forced                                   : No
  346. Text #25
  347. ID                                       : 27
  348. Format                                   : UTF-8
  349. Codec ID                                 : S_TEXT/UTF8
  350. Codec ID/Info                            : UTF-8 Plain Text
  351. Duration                                 : 1 h 50 min
  352. Bit rate                                 : 91 b/s
  353. Count of elements                        : 1993
  354. Stream size                              : 73.9 KiB (0%)
  355. Language                                 : Turkish
  356. Default                                  : No
  357. Forced                                   : No
  358. Text #26
  359. ID                                       : 28
  360. Format                                   : UTF-8
  361. Codec ID                                 : S_TEXT/UTF8
  362. Codec ID/Info                            : UTF-8 Plain Text
  363. Duration                                 : 1 h 50 min
  364. Bit rate                                 : 84 b/s
  365. Count of elements                        : 2004
  366. Stream size                              : 68.9 KiB (0%)
  367. Language                                 : Czech
  368. Default                                  : No
  369. Forced                                   : No
  370. Menu
  371. 01:49:35.993                             : en:Credits
复制代码




                                       
                                       

                                       
                                       
                                       




球鞋灰姑娘 Sneakerella.2022.2160p.DSNP.WEB-DL.x265.10bit.HDR.DDP5.1.Atmos-FLUX 13.35GB
回复

使用道具 举报

您需要登录后才可以回帖 登录 | 立即注册

本版积分规则

QQ|Archiver|手机版|小黑屋|蓝光电影网

GMT+8, 2022-7-5 04:51 , Processed in 0.052491 second(s), 25 queries .

Powered by Discuz! X3.4

Copyright © 2001-2020, Tencent Cloud.

快速回复 返回顶部 返回列表